Не буди во мне киллера / Les complices / Killing Blues (2023) WEB-DLRip

Ответить на тему
 
Автор Сообщение

admin ®

Пол: Не указан

Стаж: 7 месяца 26 дня

Сообщений: 11520

Создавать темы 30-Янв-2024 17:26

[Цитировать]

Не буди во мне киллера / Les complices / Killing Blues (2023) WEB-DLRip- Производство: Франция, Бельгия / Firelight, Artémis Productions, SND Groupe M6
Жанр: комедия
Режиссер: Сесилия Руа
Актеры: Франсуа Дамиенс, Уилльям Лебхил, Лора Фельпен, Ванесса Паради, Брюно Подалидес, Люсиль де ла Морена, Алисия Хава, Жантиль Каме
Описание:
Беспощадный киллер во время одного из заданий внезапно теряет сознание. И теперь его мутит от одного вида крови. Рабочий график, расписанный на год вперед, летит ко всем чертям. Босс и жена в ярости — мужчина должен зарабатывать. На помощь внезапно приходят соседи. Им в колл-центр как раз требуются добрые и отзывчивые люди, способные убедить любого клиента.
Возраст: 18+ (Зрителям, достигшим 18 лет)
Продолжительность: 01:37:29
Качество видео: WEB-DLRip
Перевод: Дублированный (Pride Production)
Язык озвучки: Русский
Субтитры: Отсутствуют
Видео: XviD, 720x304, ~1753 Kbps
Аудио: AC-3, 6 ch, 384 Kbps

MediaInfo:

Общее
Полное имя : D:\NNM\Не буди во мне киллера\Ne.budi.vo.mne.killera.2023.WEB-DLRip.ELEKTRI4KA.UNIONGANG.avi
Формат : AVI
Формат/Информация : Audio Video Interleave
Размер файла : 1,46 Гбайт
Продолжительность : 1 ч. 37 м.
Общий поток : 2 146 Кбит/сек
Программа кодирования : VirtualDubMod 1.5.10.3 | www.virtualdub-fr.org || (build 2550/release)
Библиотека кодирования : VirtualDubMod build 2550/release
Видео
Идентификатор : 0
Формат : MPEG-4 Visual
Профиль формата : Advanced Simple@L5
Настройки формата : BVOP1 / Custom Matrix
Параметр BVOP формата : 1
Параметр QPel формата : Нет
Параметр GMC формата : Без точки перехода
Параметр матрицы формата : Выборочная
Идентификатор кодека : XVID
Идентификатор кодека/Подсказка : XviD
Продолжительность : 1 ч. 37 м.
Битрейт : 1 753 Кбит/сек
Ширина : 720 пикселей
Высота : 304 пикселя
Соотношение сторон : 2,35:1
Частота кадров : 24,000 кадра/сек
Цветовое пространство : YUV
Субдискретизация насыщенности : 4:2:0
Битовая глубина : 8 бит
Тип развёртки : Прогрессивная
Метод сжатия : С потерями
Бит/(Пиксели*Кадры) : 0.334
Размер потока : 1,19 Гбайт (82%)
Библиотека кодирования : XviD 67
Аудио
Идентификатор : 1
Формат : AC-3
Формат/Информация : Audio Coding 3
Коммерческое название : Dolby Digital
Идентификатор кодека : 2000
Продолжительность : 1 ч. 37 м.
Вид битрейта : Постоянный
Битрейт : 384 Кбит/сек
Каналы : 6 каналов
Channel layout : L R C LFE Ls Rs
Частота : 48,0 КГц
Частота кадров : 31,250 кадров/сек (1536 SPF)
Метод сжатия : С потерями
Размер потока : 268 Мбайт (18%)
Выравнивание : Разделение по промежуткам
Продолжительность промежутка : 42 мс. (1,00 видеокадр)
Время предзагрузки промежутка : 500 мс.
Service kind : Complete Main
Скриншоты:
Все одноименные релизы в КлубеВремя раздачи: 24/7 ( до 10-ти скачавших)
[Профиль] [ЛС]
Показать сообщения:    
Ответить на тему

Текущее время: 24-Май 12:49

Часовой пояс: UTC ± 0



Вы не можете начинать темы
Вы не можете отвечать на сообщения
Вы не можете редактировать свои сообщения
Вы не можете удалять свои сообщения
Вы не можете голосовать в опросах
Вы не можете прикреплять файлы к сообщениям
Вы не можете скачивать файлы

[  Время выполнения: 0,039 сек  |  MySQL: 0,004 сек (10%) · 3 запр.  |  GZIP выкл  |  Память: 422,29 KB / 1,74 MB / 1,34 MB  |  Лимит: 7 7 7  ]