Акушер / Sage homme (2023) WEB-DLRip [MVO]

Ответить на тему
 
Автор Сообщение

admin ®

Пол: Не указан

Стаж: 5 месяца

Сообщений: 10110

Создавать темы 30-Янв-2024 17:26

[Цитировать]

Акушер / Sage homme (2023) WEB-DLRip - Производство: Франция / Kare Productions, France 2 Cinema, Marvelous Productions
Жанр: драма
Режиссер: Дженнифер Девольдер
Продюсер: Антуан Гандобер, Фабрис Голдштейн, Антуан Рейн
Актеры: Карин Вьяр, Melvin Boomer, Стив Тьеншо, Трэйси Нганаре, Bruce Dombolo, Nadia Roz, Théodort, Djibril Galy, Ethan Palisson, Zoé Pinelli
Описание:
Не сдав вступительный экзамен на медицинский факультет, Леопольд по умолчанию поступает в школу акушерства, скрывая правду от окружающих. Ему не совсем понятно, насколько он готов работать в этой исключительно женской среде, но его знакомство с опытной акушеркой Натали, страстной и решительной, изменит его взгляд на этот увлекательный мир и пошатнет его уверенность в своих убеждениях.
Релиз от: Rip by vitolinform
Продолжительность: 01:44:56
Качество видео: WEB-DLRip
Перевод: Многоголосый любительский (Синема УС)
Язык озвучки: русский, французский
Субтитры: отсутствуют
Видео: Xvid, 720x384, ~1599 Кbps
Аудио 1: AC3, 2 ch, 192 Кbps | Русский (MVO, Синема УС)
Аудио 2: AC3, 2 ch, 192 Кbps | Французский

MediaInfo:

General
Complete name : D:\Akusher.2023.WEB-DLRip.avi
Format : AVI
Format/Info : Audio Video Interleave
Format settings : BitmapInfoHeader / WaveFormatEx
File size : 1.46 GiB
Duration : 1 h 44 min
Overall bit rate : 1 997 kb/s
Frame rate : 23.976 FPS
Movie name : Акушер / Sage homme (2023) WEB-DLRip
Director : Дженнифер Девольдер / Jennifer Devoldere
Genre : драма
Writing application : VirtualDubMod 1.5.10.2 (build 2542/release)
Original source form/Name : Художественный фильм
Copyright : Франция / Kare Productions, France 2 Cinema, Marvelous Productions
Comment : Rip by vitolinform
Video
ID : 0
Format : MPEG-4 Visual
Format profile : Advanced Simple@L5
Format settings : BVOP1 / Custom Matrix
Format settings, BVOP : 1
Format settings, QPel : No
Format settings, GMC : No warppoints
Format settings, Matrix : Custom
Codec ID : XVID
Codec ID/Hint : XviD
Duration : 1 h 44 min
Bit rate : 1 599 kb/s
Width : 720 pixels
Height : 384 pixels
Display aspect ratio : 1.85:1
Frame rate : 23.976 (24000/1001) FPS
Original frame rate : 23.976 (23976/1000) FPS
Color space : YUV
Chroma subsampling : 4:2:0
Bit depth : 8 bits
Scan type : Progressive
Compression mode : Lossy
Bits/(Pixel*Frame) : 0.241
Stream size : 1.17 GiB (80%)
Writing library : XviD 73
Audio #1
ID : 1
Format : AC-3
Format/Info : Audio Coding 3
Commercial name : Dolby Digital
Codec ID : 2000
Duration : 1 h 44 min
Bit rate mode : Constant
Bit rate : 192 kb/s
Channel(s) : 2 channels
Channel layout : L R
Sampling rate : 48.0 kHz
Frame rate : 31.250 FPS (1536 SPF)
Compression mode : Lossy
Stream size : 144 MiB (10%)
Alignment : Split across interleaves
Interleave, duration : 42 ms (1.00 video frame)
Interleave, preload duration : 500 ms
Title : Russian (MVO, Синема УС)
Service kind : Complete Main
Audio #2
ID : 2
Format : AC-3
Format/Info : Audio Coding 3
Commercial name : Dolby Digital
Codec ID : 2000
Duration : 1 h 44 min
Bit rate mode : Constant
Bit rate : 192 kb/s
Channel(s) : 2 channels
Channel layout : L R
Sampling rate : 48.0 kHz
Frame rate : 31.250 FPS (1536 SPF)
Compression mode : Lossy
Stream size : 144 MiB (10%)
Alignment : Split across interleaves
Interleave, duration : 42 ms (1.00 video frame)
Interleave, preload duration : 500 ms
Title : French
Service kind : Complete Main
Скриншоты:
Все одноименные релизы в КлубеВремя раздачи: как минимум до появления первых 3-5 скачавших, 24/7 (мультитрекерная раздача)
[Профиль] [ЛС]
Показать сообщения:    
Ответить на тему

Текущее время: 28-Фев 22:35

Часовой пояс: UTC ± 0



Вы не можете начинать темы
Вы не можете отвечать на сообщения
Вы не можете редактировать свои сообщения
Вы не можете удалять свои сообщения
Вы не можете голосовать в опросах
Вы не можете прикреплять файлы к сообщениям
Вы не можете скачивать файлы

[  Время выполнения: 0,037 сек  |  MySQL: 0,003 сек (9%) · 5 запр.  |  GZIP выкл  |  Память: 422,29 KB / 1,73 MB / 1,34 MB  |  Лимит: 8 10 13  ]