Космические войны: в поисках глубинной звезды / Space Wars: Quest for the Deepstar (2022) WEB-DL [H.264/1080p] [MVO]

Ответить на тему
 
Автор Сообщение

admin ®

Пол: Не указан

Стаж: 5 месяца 1 день

Сообщений: 10110

Создавать темы 30-Янв-2024 17:25

[Цитировать]

Космические войны: в поисках глубинной звезды / Space Wars: Quest for the Deepstar (2022) WEB-DL [H.264/1080p]- Производство: США / Uncork’d Entertainment, Millman Productions
Жанр: фантастика, приключения
Режиссер: Гаро Сетиан
Актеры: Майкл Паре, Оливье Грюнер, Сара Френч, Тайлер Галлант, Рэйчел Брук Смит, Сэди Кац, Джед Роуэн, Элиз Мюллер, Уэс Хабб, Ламонт Коуч
Описание:
Кип Корман, бывший космический пират, и его дочь Тейлор, искусный пилот, отправляются в опасное приключение, чтобы найти и захватить Глубинную звезду. Путь к ней лежит через густые туманы, населенные опасными тварями, а также через засекреченные лаборатории и опасные астероиды. Но Кип и Тейлор не сдаются и продолжают двигаться вперед, сражаясь с любыми препятствиями на своем пути. Под конец путешествия они понимают, что на их хвосте следит опасный противник, готовый использовать любые средства, чтобы добраться до сокровища первым. Смогут ли Кип и Тейлор защитить свой корабль и завладеть Глубинной звездой?
Продолжительность: 01:30:07
Качество видео: WEB-DL (1080p)
Перевод: Многоголосый профессиональный (HDrezka Studio)
Язык озвучки: Русский, английский
Субтитры: Русские, английские
Видео: AVC/H.264, 1920x800, ~5439 Kbps
Аудио #1: AC3, 6 ch, 448 Kbps - Русский
Аудио #2: E-AC3, 6 ch, 640 Kbps - Английский

MediaInfo:

Общее
Уникальный идентификатор : 58176183850970782507363404160379510484 (0x2BC45350E133917FD0AAB3F53B1DDED4)
Полное имя : D:\NNM\Космические войны в поисках глубинной звезды\Space.Wars.Quest.for.the.Deepstar.1080p.mkv
Формат : Matroska
Версия формата : Version 4
Размер файла : 4,11 Гбайт
Продолжительность : 1 ч. 30 м.
Общий поток : 6 529 Кбит/сек
Дата кодирования : UTC 2023-08-12 09:12:39
Программа кодирования : mkvmerge v35.0.0 ('All The Love In The World') 64-bit
Библиотека кодирования : libebml v1.3.9 + libmatroska v1.5.2
Видео
Идентификатор : 1
Формат : AVC
Формат/Информация : Advanced Video Codec
Профиль формата : High@L4
Настройки формата : CABAC / 4 Ref Frames
Параметр CABAC формата : Да
Параметр RefFrames формата : 4 кадра
Идентификатор кодека : V_MPEG4/ISO/AVC
Продолжительность : 1 ч. 30 м.
Вид битрейта : Постоянный
Битрейт : 5 439 Кбит/сек
Номинальный битрейт : 10 000 Кбит/сек
Ширина : 1 920 пикселей
Высота : 800 пикселей
Соотношение сторон : 2,40:1
Режим частоты кадров : Постоянный
Частота кадров : 23,976 (24000/1001) кадра/сек
Цветовое пространство : YUV
Субдискретизация насыщенности : 4:2:0
Битовая глубина : 8 бит
Тип развёртки : Прогрессивная
Бит/(Пиксели*Кадры) : 0.148
Размер потока : 3,42 Гбайт (83%)
Default : Да
Forced : Нет
Цветовой диапазон : Limited
Основные цвета : BT.709
Характеристики трансфера : BT.709
Коэффициенты матрицы : BT.709
Аудио #1
Идентификатор : 2
Формат : AC-3
Формат/Информация : Audio Coding 3
Коммерческое название : Dolby Digital
Идентификатор кодека : A_AC3
Продолжительность : 1 ч. 30 м.
Вид битрейта : Постоянный
Битрейт : 448 Кбит/сек
Каналы : 6 каналов
Channel layout : L R C LFE Ls Rs
Частота : 48,0 КГц
Частота кадров : 31,250 кадров/сек (1536 SPF)
Метод сжатия : С потерями
Размер потока : 289 Мбайт (7%)
Заголовок : HDR
Язык : Russian
Service kind : Complete Main
Default : Да
Forced : Нет
Аудио #2
Идентификатор : 3
Формат : E-AC-3
Формат/Информация : Enhanced AC-3
Коммерческое название : Dolby Digital Plus
Идентификатор кодека : A_EAC3
Продолжительность : 1 ч. 30 м.
Вид битрейта : Постоянный
Битрейт : 640 Кбит/сек
Каналы : 6 каналов
Channel layout : L R C LFE Ls Rs
Частота : 48,0 КГц
Частота кадров : 31,250 кадров/сек (1536 SPF)
Метод сжатия : С потерями
Размер потока : 413 Мбайт (10%)
Язык : English
Service kind : Complete Main
Default : Нет
Forced : Нет
Текст #1
Идентификатор : 4
Формат : UTF-8
Идентификатор кодека : S_TEXT/UTF8
Идентификатор кодека/Информация : UTF-8 Plain Text
Продолжительность : 48 м. 45 с.
Битрейт : 0 бит/сек
Count of elements : 5
Размер потока : 304 байт (0%)
Заголовок : fors
Язык : Russian
Default : Да
Forced : Нет
Текст #2
Идентификатор : 5
Формат : UTF-8
Идентификатор кодека : S_TEXT/UTF8
Идентификатор кодека/Информация : UTF-8 Plain Text
Продолжительность : 1 ч. 30 м.
Битрейт : 65 бит/сек
Count of elements : 1711
Размер потока : 43,1 Кбайт (0%)
Заголовок : SDH
Язык : English
Default : Нет
Forced : Нет
Скриншоты: Все одноименные релизы в КлубеВремя раздачи: 24/7 (до 10-ти скачавших)
[Профиль] [ЛС]
Показать сообщения:    
Ответить на тему

Текущее время: 29-Фев 12:53

Часовой пояс: UTC ± 0



Вы не можете начинать темы
Вы не можете отвечать на сообщения
Вы не можете редактировать свои сообщения
Вы не можете удалять свои сообщения
Вы не можете голосовать в опросах
Вы не можете прикреплять файлы к сообщениям
Вы не можете скачивать файлы

[  Время выполнения: 0,043 сек  |  MySQL: 0,003 сек (6%) · 3 запр.  |  GZIP выкл  |  Память: 422,29 KB / 1,75 MB / 1,37 MB  |  Лимит: 19 19 17  ]