Космические войны: в поисках глубинной звезды / Space Wars: Quest for the Deepstar (2022) WEB-DLRip [MVO]

Ответить на тему
 
Автор Сообщение

admin ®

Пол: Не указан

Стаж: 4 месяца 27 дня

Сообщений: 10110

Создавать темы 30-Янв-2024 17:25

[Цитировать]

Космические войны: в поисках глубинной звезды / Space Wars: Quest for the Deepstar (2022) WEB-DLRip- Производство: США / Uncork’d Entertainment, Millman Productions
Жанр: фантастика, приключения
Режиссер: Гаро Сетиан
Актеры: Майкл Паре, Оливье Грюнер, Сара Френч, Тайлер Галлант, Рэйчел Брук Смит, Сэди Кац, Джед Роуэн, Элиз Мюллер, Уэс Хабб, Ламонт Коуч
Описание:
Кип Корман, бывший космический пират, и его дочь Тейлор, искусный пилот, отправляются в опасное приключение, чтобы найти и захватить Глубинную звезду. Путь к ней лежит через густые туманы, населенные опасными тварями, а также через засекреченные лаборатории и опасные астероиды. Но Кип и Тейлор не сдаются и продолжают двигаться вперед, сражаясь с любыми препятствиями на своем пути. Под конец путешествия они понимают, что на их хвосте следит опасный противник, готовый использовать любые средства, чтобы добраться до сокровища первым. Смогут ли Кип и Тейлор защитить свой корабль и завладеть Глубинной звездой?
Продолжительность: 01:30:07
Качество видео: WEB-DLRip
Перевод: Многоголосый профессиональный (HDrezka Studio)
Язык озвучки: Русский
Субтитры: Отсутствуют
Видео: XviD, 720x304, ~1873 Kbps
Аудио: AC-3, 6 ch, 448 Kbps

MediaInfo:

Общее
Полное имя : D:\NNM\Космические войны в поисках глубинной звезды\Space.Wars.Quest.for.the.Deepstar.2022.RUS.WEB-DLRip.XviD.AC3.-HQ-HOME.avi
Формат : AVI
Формат/Информация : Audio Video Interleave
Размер файла : 1,47 Гбайт
Продолжительность : 1 ч. 30 м.
Общий поток : 2 331 Кбит/сек
Название фильма : Космические войны: в поисках глубинной звезды / Space Wars: Quest for the Deepstar / 2022
Режиссёр : skyminsky
Кодирование произвёл : skyminsky
Жанр : фантастика, приключения
Дата записи : 12/08/2023
Программа кодирования : Lavf58.29.100
Библиотека кодирования : VirtualDub build 35491/release
Примечание : Перевод: Профессиональный многоголосый | HDrezka Studio
Видео
Идентификатор : 0
Формат : MPEG-4 Visual
Профиль формата : Advanced Simple@L5
Настройки формата : BVOP1 / Custom Matrix
Параметр BVOP формата : 1
Параметр QPel формата : Нет
Параметр GMC формата : Без точки перехода
Параметр матрицы формата : Выборочная
Идентификатор кодека : XVID
Идентификатор кодека/Подсказка : XviD
Продолжительность : 1 ч. 30 м.
Битрейт : 1 873 Кбит/сек
Ширина : 720 пикселей
Высота : 304 пикселя
Соотношение сторон : 2,35:1
Частота кадров : 23,976 (24000/1001) кадра/сек
Цветовое пространство : YUV
Субдискретизация насыщенности : 4:2:0
Битовая глубина : 8 бит
Тип развёртки : Прогрессивная
Метод сжатия : С потерями
Бит/(Пиксели*Кадры) : 0.357
Размер потока : 1,18 Гбайт (80%)
Библиотека кодирования : XviD 67
Аудио
Идентификатор : 1
Формат : AC-3
Формат/Информация : Audio Coding 3
Коммерческое название : Dolby Digital
Идентификатор кодека : 2000
Продолжительность : 1 ч. 30 м.
Вид битрейта : Постоянный
Битрейт : 448 Кбит/сек
Каналы : 6 каналов
Channel layout : L R C LFE Ls Rs
Частота : 48,0 КГц
Частота кадров : 31,250 кадров/сек (1536 SPF)
Битовая глубина : 16 бит
Метод сжатия : С потерями
Размер потока : 289 Мбайт (19%)
Выравнивание : Соединение по промежуткам
Продолжительность промежутка : 32 мс. (0,77 видеокадр)
Время предзагрузки промежутка : 512 мс.
Service kind : Complete Main
Скриншоты: Все одноименные релизы в КлубеВремя раздачи: 24/7 (до 10-ти скачавших)
[Профиль] [ЛС]
Показать сообщения:    
Ответить на тему

Текущее время: 25-Фев 20:57

Часовой пояс: UTC ± 0



Вы не можете начинать темы
Вы не можете отвечать на сообщения
Вы не можете редактировать свои сообщения
Вы не можете удалять свои сообщения
Вы не можете голосовать в опросах
Вы не можете прикреплять файлы к сообщениям
Вы не можете скачивать файлы

[  Время выполнения: 0,034 сек  |  MySQL: 0,004 сек (13%) · 3 запр.  |  GZIP выкл  |  Память: 422,29 KB / 1,72 MB / 1,32 MB  |  Лимит: 8 9 10  ]