Семя / La Graine (2023) WEB-DLRip [MVO]

Ответить на тему
 
Автор Сообщение

admin ®

Пол: Не указан

Стаж: 6 месяца 22 дня

Сообщений: 11520

Создавать темы 30-Янв-2024 17:25

[Цитировать]

Семя / La Graine (2023) WEB-DLRip - Производство: Франция, Бельгия / Belga Line Producers, Pathe Films
Жанр: комедия
Режиссер: Элоиза Ланг
Актеры: Мари Папильон, Стэйси Мартин, Франсуа Дамиенс, Пабло Поли, Виктуар Дю Буа, Гильермо Гиз, Стефани Ван Виве, Изабель Ансио, Розалия Куэвас, Флоренс Хеббелинк
Описание:
Люси и Инес любят друг друга и хотят завести ребенка, но у них ничего не выходит. После пяти попыток ЭКО, они отправляются на заключительную попытку зачатия в Бельгию. И тут начинается безумный квест по поиску подходящего семени.
Релиз от: Rip by vitolinform
Продолжительность: 01:31:43
Качество видео: WEB-DLRip
Перевод: Многоголосый любительский (Синема УС)
Язык озвучки: русский, французский
Субтитры: отсутствуют
Видео: Xvid, 720х304, ~1887 Кbps
Аудио 1: AC3, 2 ch, 192 Kbps | Русский (MVO, Синема УС)
Аудио 2: AC3, 2 ch, 192 Kbps | Французский

MediaInfo:

General
Complete name : D:\Semya.2023.WEB-DLRip.avi
Format : AVI
Format/Info : Audio Video Interleave
Format settings : BitmapInfoHeader / WaveFormatEx
File size : 1.46 GiB
Duration : 1 h 31 min
Overall bit rate : 2 285 kb/s
Frame rate : 24.000 FPS
Movie name : Семя / La Graine (2023) WEB-DLRip
Director : Элоиза Ланг / Eloise Lang
Genre : комедия
Writing application : VirtualDubMod 1.5.10.2 (build 2542/release)
Original source form/Name : Художественный фильм
Copyright : Франция / Belga Line Producers, Pathe Films
Comment : Rip by vitolinform
Video
ID : 0
Format : MPEG-4 Visual
Format profile : Advanced Simple@L5
Format settings : BVOP1 / Custom Matrix
Format settings, BVOP : 1
Format settings, QPel : No
Format settings, GMC : No warppoints
Format settings, Matrix : Custom
Codec ID : XVID
Codec ID/Hint : XviD
Duration : 1 h 31 min
Bit rate : 1 887 kb/s
Width : 720 pixels
Height : 304 pixels
Display aspect ratio : 2.35:1
Frame rate : 24.000 FPS
Color space : YUV
Chroma subsampling : 4:2:0
Bit depth : 8 bits
Scan type : Progressive
Compression mode : Lossy
Bits/(Pixel*Frame) : 0.359
Stream size : 1.21 GiB (83%)
Writing library : XviD 73
Audio #1
ID : 1
Format : AC-3
Format/Info : Audio Coding 3
Commercial name : Dolby Digital
Codec ID : 2000
Duration : 1 h 31 min
Bit rate mode : Constant
Bit rate : 192 kb/s
Channel(s) : 2 channels
Channel layout : L R
Sampling rate : 48.0 kHz
Frame rate : 31.250 FPS (1536 SPF)
Compression mode : Lossy
Stream size : 126 MiB (8%)
Alignment : Split across interleaves
Interleave, duration : 42 ms (1.00 video frame)
Interleave, preload duration : 500 ms
Title : Russian (MVO, Синема УС)
Service kind : Complete Main
Audio #2
ID : 2
Format : AC-3
Format/Info : Audio Coding 3
Commercial name : Dolby Digital
Codec ID : 2000
Duration : 1 h 31 min
Bit rate mode : Constant
Bit rate : 192 kb/s
Channel(s) : 2 channels
Channel layout : L R
Sampling rate : 48.0 kHz
Frame rate : 31.250 FPS (1536 SPF)
Compression mode : Lossy
Stream size : 126 MiB (8%)
Alignment : Split across interleaves
Interleave, duration : 42 ms (1.00 video frame)
Interleave, preload duration : 500 ms
Title : French
Service kind : Complete Main
Скриншоты:
Все одноименные релизы в КлубеВремя раздачи: как минимум до появления первых 3-5 скачавших, 24/7 (мультитрекерная раздача)
[Профиль] [ЛС]
Показать сообщения:    
Ответить на тему

Текущее время: 20-Апр 19:30

Часовой пояс: UTC ± 0



Вы не можете начинать темы
Вы не можете отвечать на сообщения
Вы не можете редактировать свои сообщения
Вы не можете удалять свои сообщения
Вы не можете голосовать в опросах
Вы не можете прикреплять файлы к сообщениям
Вы не можете скачивать файлы

[  Время выполнения: 0,037 сек  |  MySQL: 0,003 сек (8%) · 3 запр.  |  GZIP выкл  |  Память: 422,29 KB / 1,74 MB / 1,34 MB  |  Лимит: 6 5 8  ]