Город астероидов / Asteroid City (2023) WEB-DL [H.264/1080p]

Ответить на тему
 
Автор Сообщение

admin ®

Пол: Не указан

Стаж: 4 месяца 27 дня

Сообщений: 10110

Создавать темы 30-Янв-2024 17:25

[Цитировать]

Город астероидов / Asteroid City (2023) WEB-DL [H.264/1080p] - Производство: США, Германия, Focus Features, Indian Paintbrush, American Empirical Pictures
Жанр: фантастика, драма, мелодрама, комедия
Режиссер: Уэс Андерсон
Актеры: Джейсон Шварцман, Скарлетт Йоханссон, Том Хэнкс, Джеффри Райт, Тильда Суинтон, Эдвард Нортон, Брайан Крэнстон, Эдриан Броуди, Майкл Маггарт, Хоуп Дэвис
Описание:
1955 год, небольшой вымышленный городок, расположенный возле кратера, оставшегося после падения астероида тысячи лет назад. Каждый год в этом месте проводится собрание юных астрономов, в котором участвуют ученики, их семьи, учителя, а также военные. Очередной такой слёт резко прерывается событиями, способными изменить мир.
Рейтинг MPAA: PG-13 (детям до 13 лет просмотр нежелателен)
Продолжительность: 01:45:22
Качество видео: WEB-DL 1080p
Перевод: Дублированный (HotVoice 41)
Язык озвучки: Русский
Субтитры: Русские (forced hardsub)
Видео: AVC/H.264, 1920x1078, ~4300 Kbps
Аудио: AAC, 2 ch, 158 Kbps

MediaInfo:

General
Unique ID : 201700579467202604568883836309990374763 (0x97BE1E5B3BCD496F8AC1F03899F17D6B)
Complete name : /Users/HotVoice41/Asteroid City (HotVoice 41)/Asteroid.City.2023.1080p.WEB-DL.H.264(HotVoice41).mkv
Format : Matroska
Format version : Version 4
File size : 3.29 GiB
Duration : 1 h 45 min
Overall bit rate : 4 460 kb/s
Frame rate : 23.976 FPS
Encoded date : 2023-08-15 03:53:50 UTC
Writing application : mkvmerge v42.0.0 ('Overtime') 64-bit
Writing library : libebml v1.3.10 + libmatroska v1.5.2
Video
ID : 1
Format : AVC
Format/Info : Advanced Video Codec
Format profile : Main@L4.1
Format settings : CABAC / 4 Ref Frames
Format settings, CABAC : Yes
Format settings, Reference frames : 4 frames
Codec ID : V_MPEG4/ISO/AVC
Duration : 1 h 45 min
Bit rate : 4 298 kb/s
Width : 1 920 pixels
Height : 1 078 pixels
Display aspect ratio : 16:9
Frame rate mode : Constant
Frame rate : 23.976 (24000/1001) FPS
Color space : YUV
Chroma subsampling : 4:2:0
Bit depth : 8 bits
Scan type : Progressive
Bits/(Pixel*Frame) : 0.087
Stream size : 3.17 GiB (96%)
Language : zxx
Default : No
Forced : No
Color range : Limited
Color primaries : BT.709
Transfer characteristics : BT.709
Matrix coefficients : BT.709
Audio
ID : 2
Format : AAC LC
Format/Info : Advanced Audio Codec Low Complexity
Muxing mode : zlib
Codec ID : A_AAC-2
Duration : 1 h 45 min
Bit rate : 158 kb/s
Channel(s) : 2 channels
Channel layout : L R
Sampling rate : 44.1 kHz
Frame rate : 43.066 FPS (1024 SPF)
Compression mode : Lossy
Stream size : 119 MiB (4%)
Title : DUB_(HotVoice 41)
Language : Russian
Default : Yes
Forced : Yes
Скриншоты:
Все одноименные релизы в КлубеВремя раздачи: ночь, немного день (минимум до появления первых 3-5 скачавших)
[Профиль] [ЛС]
Показать сообщения:    
Ответить на тему

Текущее время: 25-Фев 22:01

Часовой пояс: UTC ± 0



Вы не можете начинать темы
Вы не можете отвечать на сообщения
Вы не можете редактировать свои сообщения
Вы не можете удалять свои сообщения
Вы не можете голосовать в опросах
Вы не можете прикреплять файлы к сообщениям
Вы не можете скачивать файлы

[  Время выполнения: 0,035 сек  |  MySQL: 0,002 сек (7%) · 3 запр.  |  GZIP выкл  |  Память: 422,29 KB / 1,73 MB / 1,33 MB  |  Лимит: 23 21 19  ]