Птичий короб: Барселона / Bird Box: Barcelona (2023) WEB-DL [H.264/1080p]

Ответить на тему
 
Автор Сообщение

admin ®

Пол: Не указан

Стаж: 5 месяца 1 день

Сообщений: 10110

Создавать темы 30-Янв-2024 17:25

[Цитировать]

Птичий короб: Барселона / Bird Box: Barcelona (2023) WEB-DL [H.264/1080p] - Производство: Испания, Chris Morgan Production, Dylan Clark Productions, Netflix Studios
Жанр: ужасы, фантастика, триллер, драма
Режиссер: Давид Пастор, Алекс Пастор
Актеры: Марио Касас, Джорджина Кэмпбелл, Алехандра Ховард, Наиля Шуберт, Диего Кальва, Патрик Криадо, Селия Фрейхейро, Лола Дуэньяс, Гонсало Де Кастро, Мишель Хеннер
Описание:
Землю атаковали загадочные существа, посмотрев на которых, люди тут же лишают себя жизни. Мир погрузился в хаос, цивилизация прекратила существование. Себастьян всеми силами пытается защитить 11-летнюю дочь и выжить в новой реальности, путешествуя по полуразрушенным улицам Барселоны, где куда большую опасность представляют так называемые видящие — люди, которые не покончили с собой и теперь буквально раскрывают глаза всем встречным бедолагам.
Продолжительность: 01:51:51
Качество видео: WEB-DL 1080p
Перевод: Дублированный (HotVoice 41)
Язык озвучки: Русский
Субтитры: Русские (forced hardsub)
Видео: AVC/H.264, 1920x1080, ~4214 Kbps
Аудио: AAC, 2 ch, 158 Kbps

MediaInfo:

General
Unique ID : 323850140596274245154785457131631758525 (0xF3A344B1115243E9E535B02BB87D4CBD)
Complete name : /Users/HotVoice41/Bird Box Barcelona (HotVoice 41)/Bird.Box.Barcelona_1080p(HotVoice41).mkv
Format : Matroska
Format version : Version 4
File size : 3.42 GiB
Duration : 1 h 51 min
Overall bit rate : 4 374 kb/s
Frame rate : 24.000 FPS
Encoded date : 2023-08-17 04:52:34 UTC
Writing application : mkvmerge v42.0.0 ('Overtime') 64-bit
Writing library : libebml v1.3.10 + libmatroska v1.5.2
Video
ID : 1
Format : AVC
Format/Info : Advanced Video Codec
Format profile : Main@L4.1
Format settings : CABAC / 4 Ref Frames
Format settings, CABAC : Yes
Format settings, Reference frames : 4 frames
Codec ID : V_MPEG4/ISO/AVC
Duration : 1 h 51 min
Bit rate : 4 214 kb/s
Width : 1 920 pixels
Height : 1 080 pixels
Display aspect ratio : 16:9
Frame rate mode : Constant
Frame rate : 24.000 FPS
Color space : YUV
Chroma subsampling : 4:2:0
Bit depth : 8 bits
Scan type : Progressive
Bits/(Pixel*Frame) : 0.085
Stream size : 3.29 GiB (96%)
Language : zxx
Default : Yes
Forced : Yes
Color range : Limited
Color primaries : BT.709
Transfer characteristics : BT.709
Matrix coefficients : BT.709
Audio
ID : 2
Format : AAC LC
Format/Info : Advanced Audio Codec Low Complexity
Codec ID : A_AAC-2
Duration : 1 h 51 min
Bit rate : 158 kb/s
Channel(s) : 2 channels
Channel layout : L R
Sampling rate : 44.1 kHz
Frame rate : 43.066 FPS (1024 SPF)
Compression mode : Lossy
Stream size : 126 MiB (4%)
Title : DUB_(HotVoice 41)
Language : Russian
Default : Yes
Forced : Yes
Скриншоты:
Все одноименные релизы в КлубеВремя раздачи: ночь, немного день (минимум до появления первых 3-5 скачавших)
[Профиль] [ЛС]
Показать сообщения:    
Ответить на тему

Текущее время: 29-Фев 12:44

Часовой пояс: UTC ± 0



Вы не можете начинать темы
Вы не можете отвечать на сообщения
Вы не можете редактировать свои сообщения
Вы не можете удалять свои сообщения
Вы не можете голосовать в опросах
Вы не можете прикреплять файлы к сообщениям
Вы не можете скачивать файлы

[  Время выполнения: 0,035 сек  |  MySQL: 0,003 сек (7%) · 3 запр.  |  GZIP выкл  |  Память: 422,29 KB / 1,73 MB / 1,33 MB  |  Лимит: 19 18 16  ]