Безумная поездочка / Joy Ride (2023) WEB-DL [H.264/1080p]

Ответить на тему
 
Автор Сообщение

admin ®

Пол: Не указан

Стаж: 4 месяца 27 дня

Сообщений: 10110

Создавать темы 30-Янв-2024 17:24

[Цитировать]

Безумная поездочка / Joy Ride (2023) WEB-DL [H.264/1080p] - Производство: США, Великобритания / Lionsgate, Point Grey Pictures
Жанр: комедия, драма
Режиссер: Адель Лим
Актеры: Эшли Пак, Шерри Кола, Стефани Сюй, Сабрина У, Дэбби Фэн, Кеннет Лю, Энни Мумоло, Дэвид Денман, Белль Чжан, Леннон Е
Описание:
Одри — американка китайского происхождения, удочерённая ещё в младенчестве — отправляется в командировку в Пекин закрыть сделку, от которой зависит её карьера. В качестве переводчика она берёт с собой Лоло, лучшую подругу из семьи китайских мигрантов, и в аэропорту узнаёт, что та ещё позвала с ними свою кузину-фанатку кей-попа, а в Китае к ним присоединяется бывшая сокурсница Кэт, актриса популярных дорам. Но китайский партнёр заявляет, что не будет вести бизнес с тем, кто не знает своего происхождения. Теперь вся шумная компания отправляется на поиски биологической матери Одри.
Возраст: 16+ (зрителям, достигшим 16 лет)
Рейтинг MPAA: R (лицам до 17 лет обязательно присутствие взрослого)
Продолжительность: 01:34:47
Качество видео: WEB-DL 1080p
Перевод: Дублированный (HotVoice 41)
Язык озвучки: Русский
Субтитры: Русские (forced hardsub)
Видео: AVC/H.264, 1918x798, ~4300 Kbps
Аудио: AAC, 2 ch, 158 Kbps

MediaInfo:

General
Unique ID : 125895654793780869825436746029252943570 (0x5EB69F0343A42CC9126EABBCF5131ED2)
Complete name : /Users/HotVoice41/Joy Ride (HotVoice 41)/Joy.Ride.2023.1080p_rutor.mkv
Format : Matroska
Format version : Version 4
File size : 2.95 GiB
Duration : 1 h 34 min
Overall bit rate : 4 456 kb/s
Frame rate : 23.976 FPS
Encoded date : 2023-08-18 17:37:38 UTC
Writing application : mkvmerge v42.0.0 ('Overtime') 64-bit
Writing library : libebml v1.3.10 + libmatroska v1.5.2
Video
ID : 1
Format : AVC
Format/Info : Advanced Video Codec
Format profile : Main@L4.1
Format settings : CABAC / 4 Ref Frames
Format settings, CABAC : Yes
Format settings, Reference frames : 4 frames
Codec ID : V_MPEG4/ISO/AVC
Duration : 1 h 34 min
Bit rate : 4 296 kb/s
Width : 1 918 pixels
Height : 798 pixels
Display aspect ratio : 2.40:1
Frame rate mode : Constant
Frame rate : 23.976 (24000/1001) FPS
Color space : YUV
Chroma subsampling : 4:2:0
Bit depth : 8 bits
Scan type : Progressive
Bits/(Pixel*Frame) : 0.117
Stream size : 2.85 GiB (96%)
Language : zxx
Default : No
Forced : No
Color range : Limited
Color primaries : BT.709
Transfer characteristics : BT.709
Matrix coefficients : BT.709
Audio
ID : 2
Format : AAC LC
Format/Info : Advanced Audio Codec Low Complexity
Codec ID : A_AAC-2
Duration : 1 h 34 min
Bit rate : 158 kb/s
Channel(s) : 2 channels
Channel layout : L R
Sampling rate : 44.1 kHz
Frame rate : 43.066 FPS (1024 SPF)
Compression mode : Lossy
Stream size : 107 MiB (4%)
Title : DUB_(HotVoice 41)
Language : Russian
Default : Yes
Forced : Yes
Скриншоты:
Все одноименные релизы в КлубеВремя раздачи: ночь, немного день (минимум до появления первых 3-5 скачавших)
[Профиль] [ЛС]
Показать сообщения:    
Ответить на тему

Текущее время: 25-Фев 17:26

Часовой пояс: UTC ± 0



Вы не можете начинать темы
Вы не можете отвечать на сообщения
Вы не можете редактировать свои сообщения
Вы не можете удалять свои сообщения
Вы не можете голосовать в опросах
Вы не можете прикреплять файлы к сообщениям
Вы не можете скачивать файлы

[  Время выполнения: 0,031 сек  |  MySQL: 0,003 сек (11%) · 3 запр.  |  GZIP выкл  |  Память: 422,29 KB / 1,72 MB / 1,32 MB  |  Лимит: 9 9 9  ]