Космические войны: в поисках глубинной звезды / Space Wars: Quest for the Deepstar (2022) WEB-DLRip [H.265/1080p-LQ] [10-bit] [MVO]

Ответить на тему
 
Автор Сообщение

admin ®

Пол: Не указан

Стаж: 4 месяца 23 дня

Сообщений: 10110

Создавать темы 30-Янв-2024 17:24

[Цитировать]

Космические войны: в поисках глубинной звезды / Space Wars: Quest for the Deepstar (2022) WEB-DLRip [H.265/1080p-LQ]- Производство: США / Uncork’d Entertainment, Millman Productions
Жанр: фантастика, приключения
Режиссер: Гаро Сетиан
Актеры: Майкл Паре, Оливье Грюнер, Сара Френч, Тайлер Галлант, Рэйчел Брук Смит, Сэди Кац, Джед Роуэн, Элиз Мюллер, Уэс Хабб, Ламонт Коуч
Описание:
Кип Корман, бывший космический пират, и его дочь Тейлор, искусный пилот, отправляются в опасное приключение, чтобы найти и захватить Глубинную звезду. Путь к ней лежит через густые туманы, населенные опасными тварями, а также через засекреченные лаборатории и опасные астероиды. Но Кип и Тейлор не сдаются и продолжают двигаться вперед, сражаясь с любыми препятствиями на своем пути. Под конец путешествия они понимают, что на их хвосте следит опасный противник, готовый использовать любые средства, чтобы добраться до сокровища первым. Смогут ли Кип и Тейлор защитить свой корабль и завладеть Глубинной звездой?
Релиз от: LORDKILL
Продолжительность: 01:30:07
Качество видео: WEB-DLRip 1080p
Перевод: Многоголосый профессиональный (HDrezka Studio)
Язык озвучки: Русский, английский
Субтитры: Русские (forced), английские (SDH)
Видео: HEVC/H.265, 1920x800, ~2001 Kbps
Аудио 1: AC3, 6 ch, 448 Kbps - Русский
Аудио 2: AAC, 6 ch, 225 Kbps - Английский

MediaInfo:

General
Unique ID : 252019935984569245942918104901545731326 (0xBD99462D5A3ACF85B98F094F8545A4FE)
Complete name : E:\КИНО\ДЛЯ РАЗДАЧ\Космические войны. В поисках глубинной звезды (2022).mkv
Format : Matroska
Format version : Version 4
File size : 1.69 GiB
Duration : 1 h 30 min
Overall bit rate : 2 677 kb/s
Frame rate : 23.976 FPS
Movie name : Космические войны: в поисках глубинной звезды / Space Wars: Quest for the Deepstar (2022)
Encoded date : 2023-08-19 14:40:00 UTC
Writing application : mkvmerge v32.0.0 ('Astral Progressions') 64-bit
Writing library : libebml v1.3.7 + libmatroska v1.5.0
Video
ID : 1
Format : HEVC
Format/Info : High Efficiency Video Coding
Format profile : Main 10@L4@Main
Codec ID : V_MPEGH/ISO/HEVC
Duration : 1 h 30 min
Bit rate : 2 001 kb/s
Width : 1 920 pixels
Height : 800 pixels
Display aspect ratio : 2.40:1
Frame rate mode : Constant
Frame rate : 23.976 (24000/1001) FPS
Color space : YUV
Chroma subsampling : 4:2:0 (Type 0)
Bit depth : 10 bits
Bits/(Pixel*Frame) : 0.054
Stream size : 1.26 GiB (75%)
Title : Space Wars: Quest for The Deepstar (2022)
Writing library : x265 3.5+1-f0c1022b6:[Windows][GCC 10.2.0][64 bit] 10bit
Encoding settings : cpuid=1111039 / frame-threads=5 / numa-pools=32 / wpp / no-pmode / no-pme / no-psnr / no-ssim / log-level=2 / input-csp=1 / input-res=1920x800 / interlace=0 / total-frames=0 / level-idc=0 / high-tier=1 / uhd-bd=0 / ref=1 / no-allow-non-conformance / no-repeat-headers / annexb / no-aud / no-eob / no-eos / no-hrd / info / hash=0 / no-temporal-layers / open-gop / min-keyint=24 / keyint=240 / gop-lookahead=0 / bframes=3 / b-adapt=0 / b-pyramid / bframe-bias=0 / rc-lookahead=5 / lookahead-slices=5 / scenecut=0 / no-hist-scenecut / radl=0 / no-splice / no-intra-refresh / ctu=32 / min-cu-size=16 / no-rect / no-amp / max-tu-size=32 / tu-inter-depth=1 / tu-intra-depth=1 / limit-tu=0 / rdoq-level=0 / dynamic-rd=0.00 / no-ssim-rd / no-signhide / no-tskip / nr-intra=0 / nr-inter=0 / no-constrained-intra / strong-intra-smoothing / max-merge=2 / limit-refs=0 / no-limit-modes / me=0 / subme=0 / merange=57 / temporal-mvp / no-frame-dup / no-hme / no-weightp / no-weightb / no-analyze-src-pics / deblock=0:0 / no-sao / no-sao-non-deblock / rd=2 / selective-sao=0 / early-skip / rskip / fast-intra / no-tskip-fast / no-cu-lossless / no-b-intra / no-splitrd-skip / rdpenalty=0 / psy-rd=2.00 / psy-rdoq=0.00 / no-rd-refine / no-lossless / cbqpoffs=0 / crqpoffs=0 / rc=abr / bitrate=2000 / qcomp=0.60 / qpstep=4 / stats-write=0 / stats-read=2 / cplxblur=20.0 / qblur=0.5 / ipratio=1.40 / pbratio=1.30 / aq-mode=1 / aq-strength=0.00 / cutree / zone-count=0 / no-strict-cbr / qg-size=32 / no-rc-grain / qpmax=69 / qpmin=0 / no-const-vbv / sar=1 / overscan=0 / videoformat=5 / range=0 / colorprim=1 / transfer=1 / colormatrix=1 / chromaloc=1 / chromaloc-top=0 / chromaloc-bottom=0 / display-window=0 / cll=0,0 / min-luma=0 / max-luma=1023 / log2-max-poc-lsb=8 / vui-timing-info / vui-hrd-info / slices=1 / no-opt-qp-pps / no-opt-ref-list-length-pps / no-multi-pass-opt-rps / scenecut-bias=0.05 / no-opt-cu-delta-qp / no-aq-motion / no-sbrc / no-hdr10 / no-hdr10-opt / no-dhdr10-opt / no-idr-recovery-sei / analysis-reuse-level=0 / analysis-save-reuse-level=0 / analysis-load-reuse-level=0 / scale-factor=0 / refine-intra=0 / refine-inter=0 / refine-mv=1 / refine-ctu-distortion=0 / no-limit-sao / ctu-info=0 / no-lowpass-dct / refine-analysis-type=0 / copy-pic=1 / max-ausize-factor=1.0 / no-dynamic-refine / no-single-sei / no-hevc-aq / no-svt / no-field / qp-adaptation-range=1.00 / scenecut-aware-qp=0conformance-window-offsets / right=0 / bottom=0 / decoder-max-rate=0 / no-vbv-live-multi-pass / no-mcstf
Language : English
Default : Yes
Forced : No
Color range : Limited
Color primaries : BT.709
Transfer characteristics : BT.709
Matrix coefficients : BT.709
Audio #1
ID : 2
Format : AC-3
Format/Info : Audio Coding 3
Commercial name : Dolby Digital
Codec ID : A_AC3
Duration : 1 h 30 min
Bit rate mode : Constant
Bit rate : 448 kb/s
Channel(s) : 6 channels
Channel layout : L R C LFE Ls Rs
Sampling rate : 48.0 kHz
Frame rate : 31.250 FPS (1536 SPF)
Compression mode : Lossy
Delay relative to video : -21 ms
Stream size : 289 MiB (17%)
Title : MVO (HDRezka Studio)
Language : Russian
Service kind : Complete Main
Default : Yes
Forced : No
Audio #2
ID : 3
Format : AAC LC
Format/Info : Advanced Audio Codec Low Complexity
Codec ID : A_AAC-2
Duration : 1 h 30 min
Bit rate : 225 kb/s
Channel(s) : 6 channels
Channel layout : C L R Ls Rs LFE
Sampling rate : 48.0 kHz
Frame rate : 46.875 FPS (1024 SPF)
Compression mode : Lossy
Delay relative to video : -21 ms
Stream size : 145 MiB (8%)
Title : Original
Language : English
Default : No
Forced : No
Text #1
ID : 4
Format : UTF-8
Codec ID : S_TEXT/UTF8
Codec ID/Info : UTF-8 Plain Text
Duration : 48 min 45 s
Bit rate : 0 b/s
Frame rate : 0.002 FPS
Count of elements : 5
Stream size : 304 Bytes (0%)
Title : Forced
Language : Russian
Default : Yes
Forced : Yes
Text #2
ID : 5
Format : UTF-8
Codec ID : S_TEXT/UTF8
Codec ID/Info : UTF-8 Plain Text
Duration : 1 h 30 min
Bit rate : 65 b/s
Frame rate : 0.317 FPS
Count of elements : 1711
Stream size : 43.1 KiB (0%)
Title : SDH
Language : English
Default : No
Forced : No
Скриншоты: Все одноименные релизы в КлубеВремя раздачи: 24/7 (минимум до появления первых 10 скачавших)
[Профиль] [ЛС]
Показать сообщения:    
Ответить на тему

Текущее время: 22-Фев 00:41

Часовой пояс: UTC ± 0



Вы не можете начинать темы
Вы не можете отвечать на сообщения
Вы не можете редактировать свои сообщения
Вы не можете удалять свои сообщения
Вы не можете голосовать в опросах
Вы не можете прикреплять файлы к сообщениям
Вы не можете скачивать файлы

[  Время выполнения: 0,036 сек  |  MySQL: 0,003 сек (8%) · 3 запр.  |  GZIP выкл  |  Память: 421,85 KB / 1,75 MB / 1,37 MB  |  Лимит: 15 16 15  ]