Рубеж выживания / Last Sentinel (2023) BDRip [H.264/1080p]

Ответить на тему
 
Автор Сообщение

admin ®

Пол: Не указан

Стаж: 6 месяца 22 дня

Сообщений: 11520

Создавать темы 30-Янв-2024 17:24

[Цитировать]

Рубеж выживания / Last Sentinel (2023) BDRip [H.264/1080p]- Производство: Великобритания / Allfilm, Altitude Film Entertainment
Жанр: фантастика, триллер, драма
Режиссер: Танел Тоом
Актеры: Кейт Босворт, Люсьен Лависконт, Мартин МакКанн, Томас Кречман, Бен Пуллен, Karin Tammaru, Jan Erik Ehrenberg, Моника Туви
Описание:
Четверо специалистов, обслуживающих сверхсекретный объект, уже давно работают посреди океана без связи с внешним миром. Когда ресурсы подходят к концу, а на контакт с ними никто не выходит, напряжение начинает возрастать. Приборы показывают приближение шторма, на горизонте появляется не подающий сигналов корабль. Команда начинает подозревать, что оказалась пешкой в чьей-то зловещей игре. Чтобы выбраться из ловушки и выжить, им придется разгадать тайну последнего рубежа.
Возраст: 18+ (Зрителям, достигшим 18 лет)
Продолжительность: 01:57:09
Качество видео: BDRip (1080p)
Перевод: Дублированный, профессиональный многоголосый
Язык озвучки: Русский, английский
Субтитры: Русские, английские
Видео: AVC/H.264, 1920x804, ~8000 Кbps
Аудио 1: AC3, 6 ch, 448 kbps - Русский (Dub, Paragraph Media)
Аудио 2: E-AC3, 6 ch, 448 kbps - Русский (Dub, Paragraph Media)
Аудио 3: AC3, 6 ch, 384 kbps - Русский (MVO, Jaskier)
Аудио 4: AC3, 6 ch, 384 kbps - Русский (MVO, TVShows)
Аудио 5: AC3, 6 ch, 640 kbps - Английский (Оригинал)

MediaInfo:

Общее
Уникальный идентификатор : 217464871161260973954578037052001879936 (0xA39A35F1E381185E80850284FC5E0780)
Полное имя : D:\NNM\Рубеж выживания\Last.Sentinel.2023.D.MVO.BDRip.1080p.seleZen.mkv
Формат : Matroska
Версия формата : Version 4
Размер файла : 8,43 Гбайт
Продолжительность : 1 ч. 57 м.
Общий поток : 10,3 Мбит/сек
Название фильма : Last Sentinel 2023 from seleZen
Дата кодирования : UTC 2023-08-19 21:41:42
Программа кодирования : mkvmerge v63.0.0 ('Everything') 64-bit
Библиотека кодирования : libebml v1.4.2 + libmatroska v1.6.4
Видео
Идентификатор : 1
Формат : AVC
Формат/Информация : Advanced Video Codec
Профиль формата : High@L4.1
Настройки формата : CABAC / 5 Ref Frames
Параметр CABAC формата : Да
Параметр RefFrames формата : 5 кадров
Идентификатор кодека : V_MPEG4/ISO/AVC
Продолжительность : 1 ч. 57 м.
Битрейт : 8 000 Кбит/сек
Ширина : 1 920 пикселей
Высота : 804 пикселя
Соотношение сторон : 2,40:1
Режим частоты кадров : Постоянный
Частота кадров : 23,976 (24000/1001) кадра/сек
Цветовое пространство : YUV
Субдискретизация насыщенности : 4:2:0
Битовая глубина : 8 бит
Тип развёртки : Прогрессивная
Бит/(Пиксели*Кадры) : 0.216
Размер потока : 6,54 Гбайт (78%)
Библиотека кодирования : x264 core 164 r3107+58M ae98796 t_mod_New [(8 & 10)-seleZen X86_64]
Настройки программы : cabac=1 / ref=5 / deblock=1:-2:-2 / analyse=0x3:0x133 / me=umh / subme=10 / psy=1 / fade_compensate=0.00 / psy_rd=1.03:0.03 / mixed_ref=1 / me_range=32 / chroma_me=1 / trellis=2 / 8x8dct=1 / cqm=0 / deadzone=21,11 / fast_pskip=0 / chroma_qp_offset=-3 / threads=18 / lookahead_threads=3 / sliced_threads=0 / nr=0 / decimate=0 / interlaced=0 / bluray_compat=0 / constrained_intra=0 / fgo=0 / bframes=8 / b_pyramid=2 / b_adapt=2 / b_bias=0 / direct=3 / weightb=1 / open_gop=0 / weightp=2 / keyint=240 / keyint_min=23 / scenecut=40 / intra_refresh=0 / rc_lookahead=60 / rc=2pass / mbtree=0 / bitrate=8000 / ratetol=1.0 / qcomp=0.60 / qpmin=0:0:0 / qpmax=51:51:51 / qpstep=4 / cplxblur=20.0 / qblur=0.5 / vbv_maxrate=50000 / vbv_bufsize=62500 / nal_hrd=none / filler=0 / ip_ratio=1.40 / pb_ratio=1.30 / aq=3:0.80 / aq-sensitivity=10.00 / aq-factor=1.00:1.00:1.00:1.00 / aq2=0 / aq3=0
Язык : English
Default : Да
Forced : Нет
Аудио #1
Идентификатор : 2
Формат : AC-3
Формат/Информация : Audio Coding 3
Коммерческое название : Dolby Digital
Идентификатор кодека : A_AC3
Продолжительность : 1 ч. 57 м.
Вид битрейта : Постоянный
Битрейт : 448 Кбит/сек
Каналы : 6 каналов
Channel layout : L R C LFE Ls Rs
Частота : 48,0 КГц
Частота кадров : 31,250 кадров/сек (1536 SPF)
Метод сжатия : С потерями
Размер потока : 375 Мбайт (4%)
Заголовок : Dub [Paragraph Media]
Язык : Russian
Service kind : Complete Main
Default : Да
Forced : Да
Аудио #2
Идентификатор : 3
Формат : E-AC-3
Формат/Информация : Enhanced AC-3
Коммерческое название : Dolby Digital Plus
Идентификатор кодека : A_EAC3
Продолжительность : 1 ч. 57 м.
Вид битрейта : Постоянный
Битрейт : 448 Кбит/сек
Каналы : 6 каналов
Channel layout : L R C LFE Ls Rs
Частота : 48,0 КГц
Частота кадров : 31,250 кадров/сек (1536 SPF)
Метод сжатия : С потерями
Размер потока : 375 Мбайт (4%)
Заголовок : Dub [Paragraph Media]
Язык : Russian
Service kind : Complete Main
Default : Нет
Forced : Нет
Аудио #3
Идентификатор : 4
Формат : AC-3
Формат/Информация : Audio Coding 3
Коммерческое название : Dolby Digital
Идентификатор кодека : A_AC3
Продолжительность : 1 ч. 57 м.
Вид битрейта : Постоянный
Битрейт : 384 Кбит/сек
Каналы : 6 каналов
Channel layout : L R C LFE Ls Rs
Частота : 48,0 КГц
Частота кадров : 31,250 кадров/сек (1536 SPF)
Метод сжатия : С потерями
Размер потока : 322 Мбайт (4%)
Заголовок : MVO [Jaskier]
Язык : Russian
Service kind : Complete Main
Default : Нет
Forced : Нет
Аудио #4
Идентификатор : 5
Формат : AC-3
Формат/Информация : Audio Coding 3
Коммерческое название : Dolby Digital
Идентификатор кодека : A_AC3
Продолжительность : 1 ч. 57 м.
Вид битрейта : Постоянный
Битрейт : 384 Кбит/сек
Каналы : 6 каналов
Channel layout : L R C LFE Ls Rs
Частота : 48,0 КГц
Частота кадров : 31,250 кадров/сек (1536 SPF)
Метод сжатия : С потерями
Размер потока : 322 Мбайт (4%)
Заголовок : MVO [TVShows]
Язык : Russian
Service kind : Complete Main
Default : Нет
Forced : Нет
Аудио #5
Идентификатор : 6
Формат : AC-3
Формат/Информация : Audio Coding 3
Коммерческое название : Dolby Digital
Идентификатор кодека : A_AC3
Продолжительность : 1 ч. 57 м.
Вид битрейта : Постоянный
Битрейт : 640 Кбит/сек
Каналы : 6 каналов
Channel layout : L R C LFE Ls Rs
Частота : 48,0 КГц
Частота кадров : 31,250 кадров/сек (1536 SPF)
Метод сжатия : С потерями
Размер потока : 536 Мбайт (6%)
Заголовок : Original
Язык : English
Service kind : Complete Main
Default : Нет
Forced : Нет
Текст #1
Идентификатор : 7
Формат : UTF-8
Идентификатор кодека : S_TEXT/UTF8
Идентификатор кодека/Информация : UTF-8 Plain Text
Продолжительность : 1 ч. 52 м.
Битрейт : 47 бит/сек
Count of elements : 943
Размер потока : 39,2 Кбайт (0%)
Заголовок : Full [Off.]
Язык : Russian
Default : Нет
Forced : Нет
Текст #2
Идентификатор : 8
Формат : UTF-8
Идентификатор кодека : S_TEXT/UTF8
Идентификатор кодека/Информация : UTF-8 Plain Text
Продолжительность : 1 ч. 49 м.
Битрейт : 48 бит/сек
Count of elements : 953
Размер потока : 38,4 Кбайт (0%)
Заголовок : Full [Jaskier]
Язык : Russian
Default : Нет
Forced : Нет
Текст #3
Идентификатор : 9
Формат : UTF-8
Идентификатор кодека : S_TEXT/UTF8
Идентификатор кодека/Информация : UTF-8 Plain Text
Продолжительность : 1 ч. 49 м.
Битрейт : 28 бит/сек
Count of elements : 925
Размер потока : 22,5 Кбайт (0%)
Язык : English
Default : Нет
Forced : Нет
Меню
00:00:00.000 : en:Chapter 1
00:09:58.639 : en:Chapter 2
00:19:54.985 : en:Chapter 3
00:27:54.214 : en:Chapter 4
00:39:11.432 : en:Chapter 5
00:50:14.678 : en:Chapter 6
01:00:18.281 : en:Chapter 7
01:09:49.852 : en:Chapter 8
01:19:22.674 : en:Chapter 9
01:29:22.231 : en:Chapter 10
01:39:39.723 : en:Chapter 11
01:48:12.652 : en:Chapter 12
Скриншоты:
Все одноименные релизы в КлубеВремя раздачи: 24/7 (до 10-ти скачавших)
[Профиль] [ЛС]
Показать сообщения:    
Ответить на тему

Текущее время: 20-Апр 19:56

Часовой пояс: UTC ± 0



Вы не можете начинать темы
Вы не можете отвечать на сообщения
Вы не можете редактировать свои сообщения
Вы не можете удалять свои сообщения
Вы не можете голосовать в опросах
Вы не можете прикреплять файлы к сообщениям
Вы не можете скачивать файлы

[  Время выполнения: 0,043 сек  |  MySQL: 0,004 сек (10%) · 3 запр.  |  GZIP выкл  |  Память: 422,29 KB / 1,76 MB / 1,38 MB  |  Лимит: 5 4 5  ]