Рубеж выживания / Last Sentinel (2023) BDRemux [H.264/1080p]

Ответить на тему
 
Автор Сообщение

admin ®

Пол: Не указан

Стаж: 4 месяца 23 дня

Сообщений: 10110

Создавать темы 30-Янв-2024 17:24

[Цитировать]

Рубеж выживания / Last Sentinel (2023) BDRemux [H.264/1080p]- Производство: Великобритания / Allfilm, Altitude Film Entertainment
Жанр: фантастика, триллер, драма
Режиссер: Танел Тоом
Актеры: Кейт Босворт, Люсьен Лависконт, Мартин МакКанн, Томас Кречман, Бен Пуллен, Karin Tammaru, Jan Erik Ehrenberg, Моника Туви
Описание:
Четверо специалистов, обслуживающих сверхсекретный объект, уже давно работают посреди океана без связи с внешним миром. Когда ресурсы подходят к концу, а на контакт с ними никто не выходит, напряжение начинает возрастать. Приборы показывают приближение шторма, на горизонте появляется не подающий сигналов корабль. Команда начинает подозревать, что оказалась пешкой в чьей-то зловещей игре. Чтобы выбраться из ловушки и выжить, им придется разгадать тайну последнего рубежа.
Возраст: 18+ (Зрителям, достигшим 18 лет)
Продолжительность: 01:57:09
Качество видео: Blu-Ray Remux (1080p)
Перевод: Дублированный, профессиональный многоголосый
Язык озвучки: Русский, английский
Субтитры: Русские, английские
Видео: AVC/H.264, 1920x1080, ~19,6 Mbps
Аудио 1: AC3, 6 ch, 448 kbps - Русский (Dub, Paragraph Media)
Аудио 2: E-AC3, 6 ch, 448 kbps - Русский (Dub, Paragraph Media)
Аудио 3: AC3, 6 ch, 384 kbps - Русский (MVO, Jaskier)
Аудио 4: AC3, 6 ch, 384 kbps - Русский (MVO, TVShows)
Аудио 5: DTS-HD MA, 6 ch, 3168 kbps - Английский (Оригинал)

MediaInfo:

Общее
Уникальный идентификатор : 300789709872668752777074309143609061131 (0xE249FDACFB299D6838B76E265CE5AF0B)
Полное имя : D:\NNM\Рубеж выживания\Last.Sentinel.2023.D.MVO.BDREMUX.1080p.seleZen.mkv
Формат : Matroska
Версия формата : Version 4
Размер файла : 20,0 Гбайт
Продолжительность : 1 ч. 57 м.
Режим общего битрейта : Переменный
Общий поток : 24,4 Мбит/сек
Название фильма : Last Sentinel 2023 from seleZen
Дата кодирования : UTC 2023-08-19 22:03:05
Программа кодирования : mkvmerge v63.0.0 ('Everything') 64-bit
Библиотека кодирования : libebml v1.4.2 + libmatroska v1.6.4
Видео
Идентификатор : 1
ID in the original source medium : 4113 (0x1011)
Формат : AVC
Формат/Информация : Advanced Video Codec
Профиль формата : High@L4.1
Настройки формата : CABAC / 4 Ref Frames
Параметр CABAC формата : Да
Параметр RefFrames формата : 4 кадра
Идентификатор кодека : V_MPEG4/ISO/AVC
Продолжительность : 1 ч. 57 м.
Вид битрейта : Переменный
Битрейт : 19,6 Мбит/сек
Максимальный битрейт : 38,0 Мбит/сек
Ширина : 1 920 пикселей
Высота : 1 080 пикселей
Соотношение сторон : 16:9
Режим частоты кадров : Постоянный
Частота кадров : 23,976 (24000/1001) кадра/сек
Цветовое пространство : YUV
Субдискретизация насыщенности : 4:2:0
Битовая глубина : 8 бит
Тип развёртки : Прогрессивная
Бит/(Пиксели*Кадры) : 0.393
Размер потока : 16,0 Гбайт (80%)
Default : Да
Forced : Нет
Носитель оригинала : Blu-ray
Аудио #1
Идентификатор : 2
Формат : AC-3
Формат/Информация : Audio Coding 3
Коммерческое название : Dolby Digital
Идентификатор кодека : A_AC3
Продолжительность : 1 ч. 57 м.
Вид битрейта : Постоянный
Битрейт : 448 Кбит/сек
Каналы : 6 каналов
Channel layout : L R C LFE Ls Rs
Частота : 48,0 КГц
Частота кадров : 31,250 кадров/сек (1536 SPF)
Метод сжатия : С потерями
Размер потока : 375 Мбайт (2%)
Заголовок : Dub [Paragraph Media]
Язык : Russian
Service kind : Complete Main
Default : Да
Forced : Да
Аудио #2
Идентификатор : 3
Формат : E-AC-3
Формат/Информация : Enhanced AC-3
Коммерческое название : Dolby Digital Plus
Идентификатор кодека : A_EAC3
Продолжительность : 1 ч. 57 м.
Вид битрейта : Постоянный
Битрейт : 448 Кбит/сек
Каналы : 6 каналов
Channel layout : L R C LFE Ls Rs
Частота : 48,0 КГц
Частота кадров : 31,250 кадров/сек (1536 SPF)
Метод сжатия : С потерями
Размер потока : 375 Мбайт (2%)
Заголовок : Dub [Paragraph Media]
Язык : Russian
Service kind : Complete Main
Default : Нет
Forced : Нет
Аудио #3
Идентификатор : 4
Формат : AC-3
Формат/Информация : Audio Coding 3
Коммерческое название : Dolby Digital
Идентификатор кодека : A_AC3
Продолжительность : 1 ч. 57 м.
Вид битрейта : Постоянный
Битрейт : 384 Кбит/сек
Каналы : 6 каналов
Channel layout : L R C LFE Ls Rs
Частота : 48,0 КГц
Частота кадров : 31,250 кадров/сек (1536 SPF)
Метод сжатия : С потерями
Размер потока : 322 Мбайт (2%)
Заголовок : MVO [Jaskier]
Язык : Russian
Service kind : Complete Main
Default : Нет
Forced : Нет
Аудио #4
Идентификатор : 5
Формат : AC-3
Формат/Информация : Audio Coding 3
Коммерческое название : Dolby Digital
Идентификатор кодека : A_AC3
Продолжительность : 1 ч. 57 м.
Вид битрейта : Постоянный
Битрейт : 384 Кбит/сек
Каналы : 6 каналов
Channel layout : L R C LFE Ls Rs
Частота : 48,0 КГц
Частота кадров : 31,250 кадров/сек (1536 SPF)
Метод сжатия : С потерями
Размер потока : 322 Мбайт (2%)
Заголовок : MVO [TVShows]
Язык : Russian
Service kind : Complete Main
Default : Нет
Forced : Нет
Аудио #5
Идентификатор : 6
ID in the original source medium : 4352 (0x1100)
Формат : DTS XLL
Формат/Информация : Digital Theater Systems
Коммерческое название : DTS-HD Master Audio
Идентификатор кодека : A_DTS
Продолжительность : 1 ч. 57 м.
Вид битрейта : Переменный
Битрейт : 3 168 Кбит/сек
Каналы : 6 каналов
Channel layout : C L R Ls Rs LFE
Частота : 48,0 КГц
Частота кадров : 93,750 кадра/сек (512 SPF)
Битовая глубина : 24 бит
Метод сжатия : Без потерь
Размер потока : 2,59 Гбайт (13%)
Заголовок : Original
Язык : English
Default : Нет
Forced : Нет
Носитель оригинала : Blu-ray
Текст #1
Идентификатор : 7
Формат : UTF-8
Идентификатор кодека : S_TEXT/UTF8
Идентификатор кодека/Информация : UTF-8 Plain Text
Продолжительность : 1 ч. 52 м.
Битрейт : 47 бит/сек
Count of elements : 943
Размер потока : 39,2 Кбайт (0%)
Заголовок : Full [Off.]
Язык : Russian
Default : Нет
Forced : Нет
Текст #2
Идентификатор : 8
Формат : UTF-8
Идентификатор кодека : S_TEXT/UTF8
Идентификатор кодека/Информация : UTF-8 Plain Text
Продолжительность : 1 ч. 49 м.
Битрейт : 48 бит/сек
Count of elements : 953
Размер потока : 38,4 Кбайт (0%)
Заголовок : Full [Jaskier]
Язык : Russian
Default : Нет
Forced : Нет
Текст #3
Идентификатор : 9
Формат : UTF-8
Идентификатор кодека : S_TEXT/UTF8
Идентификатор кодека/Информация : UTF-8 Plain Text
Продолжительность : 1 ч. 49 м.
Битрейт : 28 бит/сек
Count of elements : 925
Размер потока : 22,5 Кбайт (0%)
Язык : English
Default : Нет
Forced : Нет
Меню
00:00:00.000 : en:Chapter 1
00:09:58.639 : en:Chapter 2
00:19:54.985 : en:Chapter 3
00:27:54.214 : en:Chapter 4
00:39:11.432 : en:Chapter 5
00:50:14.678 : en:Chapter 6
01:00:18.281 : en:Chapter 7
01:09:49.852 : en:Chapter 8
01:19:22.674 : en:Chapter 9
01:29:22.231 : en:Chapter 10
01:39:39.723 : en:Chapter 11
01:48:12.652 : en:Chapter 12
Скриншоты:
Все одноименные релизы в КлубеВремя раздачи: 24/7 (до 10-ти скачавших)
[Профиль] [ЛС]
Показать сообщения:    
Ответить на тему

Текущее время: 22-Фев 01:51

Часовой пояс: UTC ± 0



Вы не можете начинать темы
Вы не можете отвечать на сообщения
Вы не можете редактировать свои сообщения
Вы не можете удалять свои сообщения
Вы не можете голосовать в опросах
Вы не можете прикреплять файлы к сообщениям
Вы не можете скачивать файлы

[  Время выполнения: 0,028 сек  |  MySQL: 0,003 сек (10%) · 3 запр.  |  GZIP выкл  |  Память: 421,85 KB / 1,73 MB / 1,35 MB  |  Лимит: 9 10 14  ]