Рубеж выживания / Last Sentinel (2023) BDRip

Ответить на тему
 
Автор Сообщение

admin ®

Пол: Не указан

Стаж: 5 месяца

Сообщений: 10110

Создавать темы 30-Янв-2024 17:24

[Цитировать]

Рубеж выживания / Last Sentinel (2023) BDRip- Производство: Великобритания / Allfilm, Altitude Film Entertainment
Жанр: фантастика, триллер, драма
Режиссер: Танел Тоом
Актеры: Кейт Босворт, Люсьен Лависконт, Мартин МакКанн, Томас Кречман, Бен Пуллен, Karin Tammaru, Jan Erik Ehrenberg, Моника Туви
Описание:
Четверо специалистов, обслуживающих сверхсекретный объект, уже давно работают посреди океана без связи с внешним миром. Когда ресурсы подходят к концу, а на контакт с ними никто не выходит, напряжение начинает возрастать. Приборы показывают приближение шторма, на горизонте появляется не подающий сигналов корабль. Команда начинает подозревать, что оказалась пешкой в чьей-то зловещей игре. Чтобы выбраться из ловушки и выжить, им придется разгадать тайну последнего рубежа.
Возраст: 18+ (Зрителям, достигшим 18 лет)
Продолжительность: 01:57:09
Качество видео: BDRip
Перевод: Дублированный (Paragraph Media)
Язык озвучки: Русский
Субтитры: Отсутствуют
Видео: XviD, 720x304, ~1420 Kbps
Аудио: AC-3, 6 ch, 384 Kbps

MediaInfo:

Общее
Полное имя : D:\NNM\Рубеж выживания\Last.Sentinel.2023.BDRip.avi
Формат : AVI
Формат/Информация : Audio Video Interleave
Размер файла : 1,48 Гбайт
Продолжительность : 1 ч. 57 м.
Общий поток : 1 813 Кбит/сек
Программа кодирования : VirtualDubMod 1.5.10.3 | www.virtualdub-fr.org || (build 2550/release)
Библиотека кодирования : VirtualDubMod build 2550/release
Видео
Идентификатор : 0
Формат : MPEG-4 Visual
Профиль формата : Advanced Simple@L5
Настройки формата : BVOP1 / Custom Matrix
Параметр BVOP формата : 1
Параметр QPel формата : Нет
Параметр GMC формата : Без точки перехода
Параметр матрицы формата : Выборочная
Идентификатор кодека : XVID
Идентификатор кодека/Подсказка : XviD
Продолжительность : 1 ч. 57 м.
Битрейт : 1 420 Кбит/сек
Ширина : 720 пикселей
Высота : 304 пикселя
Соотношение сторон : 2,35:1
Частота кадров : 23,976 (24000/1001) кадра/сек
Цветовое пространство : YUV
Субдискретизация насыщенности : 4:2:0
Битовая глубина : 8 бит
Тип развёртки : Прогрессивная
Метод сжатия : С потерями
Бит/(Пиксели*Кадры) : 0.271
Размер потока : 1,16 Гбайт (78%)
Библиотека кодирования : XviD 73
Аудио
Идентификатор : 1
Формат : AC-3
Формат/Информация : Audio Coding 3
Коммерческое название : Dolby Digital
Идентификатор кодека : 2000
Продолжительность : 1 ч. 57 м.
Вид битрейта : Постоянный
Битрейт : 384 Кбит/сек
Каналы : 6 каналов
Channel layout : L R C LFE Ls Rs
Частота : 48,0 КГц
Частота кадров : 31,250 кадров/сек (1536 SPF)
Метод сжатия : С потерями
Размер потока : 322 Мбайт (21%)
Выравнивание : Разделение по промежуткам
Продолжительность промежутка : 42 мс. (1,00 видеокадр)
Время предзагрузки промежутка : 500 мс.
Service kind : Complete Main
Скриншоты:
Все одноименные релизы в КлубеВремя раздачи: 24/7 (до 10-ти скачавших)
[Профиль] [ЛС]
Показать сообщения:    
Ответить на тему

Текущее время: 28-Фев 23:15

Часовой пояс: UTC ± 0



Вы не можете начинать темы
Вы не можете отвечать на сообщения
Вы не можете редактировать свои сообщения
Вы не можете удалять свои сообщения
Вы не можете голосовать в опросах
Вы не можете прикреплять файлы к сообщениям
Вы не можете скачивать файлы

[  Время выполнения: 0,037 сек  |  MySQL: 0,004 сек (11%) · 5 запр.  |  GZIP выкл  |  Память: 422,29 KB / 1,73 MB / 1,34 MB  |  Лимит: 12 10 10  ]