Метаморфоза / Metamorphosis (2022) WEBRip [H.264/1080p] [VO]

Ответить на тему
 
Автор Сообщение

admin ®

Пол: Не указан

Стаж: 4 месяца 27 дня

Сообщений: 10110

Создавать темы 30-Янв-2024 17:24

[Цитировать]

Метаморфоза / Metamorphosis (2022) WEBRip [H.264/1080p] - Производство: США / The Smoot Company
Жанр: ужасы, фантастика, триллер, драма
Режиссер: Алекс Смут
Актеры: Гил МакКинни, Кристофер Корделл, Наташа Кришнан, Скотт Хилтон
Описание:
Супружеская пара предпринимает последнюю попытку спасти свои отношения. Тем временем, физическое и психическое состояние мужа начинает ухудшаться.
Релиз от: Alexandr
Продолжительность: 01:22:37
Качество видео: WEBRip
Перевод: Одноголосый любительский (datynet)
Язык озвучки: русский, английский
Субтитры: английские
Видео: AVC/H.264, 1920x960, ~3890 Kbps
Аудио 1: AAC, 2 ch, 265 Kbps - русский
Аудио 2: AAC, 2 ch, 129 Kbps - английский

MediaInfo:

Общее
Уникальный идентификатор : 109629047156351070579701688941818032633 (0x5279C9560D6B3C3C5F77D91F4DCE31F9)
Полное имя : G:\Metamorphosis (2022).by.Alexandr.mkv
Формат : Matroska
Версия формата : Version 4
Размер файла : 2,47 Гбайт
Продолжительность : 1 ч. 22 м.
Общий поток : 4 273 Кбит/сек
Частота кадров : 23,976 кадра/сек
Название фильма : Metamorphosis (2022).by.Alexandr
Дата кодирования : 2023-08-20 08:22:06 UTC
Программа кодирования : mkvmerge v26.0.0 ('In The Game') 32-bit
Библиотека кодирования : libebml v1.3.6 + libmatroska v1.4.9
Видео
Идентификатор : 1
Формат : AVC
Формат/Информация : Advanced Video Codec
Профиль формата : High@L4
Настройки формата : CABAC / 4 Ref Frames
Параметр CABAC формата : Да
Параметр RefFrames формата : 4 кадра
Параметр GOP формата : M=1, N=72
Идентификатор кодека : V_MPEG4/ISO/AVC
Продолжительность : 1 ч. 22 м.
Битрейт : 3 888 Кбит/сек
Ширина : 1 920 пикселей
Высота : 960 пикселей
Соотношение сторон : 2,000
Режим частоты кадров : Постоянный
Частота кадров : 23,976 кадра/сек
Цветовое пространство : YUV
Субдискретизация насыщенности : 4:2:0
Битовая глубина : 8 бит
Тип развёртки : Прогрессивная
Бит/(Пиксели*Кадры) : 0.088
Размер потока : 2,24 Гбайт (91%)
Default : Да
Forced : Нет
Аудио #1
Идентификатор : 2
Формат : AAC LC
Формат/Информация : Advanced Audio Codec Low Complexity
Идентификатор кодека : A_AAC-2
Продолжительность : 1 ч. 22 м.
Битрейт : 265 Кбит/сек
Каналы : 2 канала
Channel layout : L R
Частота : 48,0 КГц
Частота кадров : 46,875 кадров/сек (1024 SPF)
Метод сжатия : С потерями
Размер потока : 155 Мбайт (6%)
Язык : Russian
Default : Нет
Forced : Нет
Аудио #2
Идентификатор : 3
Формат : AAC LC
Формат/Информация : Advanced Audio Codec Low Complexity
Идентификатор кодека : A_AAC-2
Продолжительность : 1 ч. 22 м.
Битрейт : 129 Кбит/сек
Каналы : 2 канала
Channel layout : L R
Частота : 48,0 КГц
Частота кадров : 46,875 кадров/сек (1024 SPF)
Метод сжатия : С потерями
Размер потока : 76,2 Мбайт (3%)
Язык : English
Default : Да
Forced : Нет
Текст
Идентификатор : 4
Формат : UTF-8
Идентификатор кодека : S_TEXT/UTF8
Идентификатор кодека/Информация : UTF-8 Plain Text
Продолжительность : 1 ч. 20 м.
Битрейт : 21 бит/сек
Частота кадров : 0,111 кадр/сек
Count of elements : 536
Размер потока : 12,9 Кбайт (0%)
Язык : English
Default : Да
Forced : Нет
Скриншоты:
Все одноименные релизы в КлубеВремя раздачи: 24/7 (круглосуточно) (минимум до появления первых 3-5 скачавших)
[Профиль] [ЛС]
Показать сообщения:    
Ответить на тему

Текущее время: 25-Фев 21:43

Часовой пояс: UTC ± 0



Вы не можете начинать темы
Вы не можете отвечать на сообщения
Вы не можете редактировать свои сообщения
Вы не можете удалять свои сообщения
Вы не можете голосовать в опросах
Вы не можете прикреплять файлы к сообщениям
Вы не можете скачивать файлы

[  Время выполнения: 0,028 сек  |  MySQL: 0,003 сек (11%) · 3 запр.  |  GZIP выкл  |  Память: 422,29 KB / 1,72 MB / 1,32 MB  |  Лимит: 16 15 14  ]