Колодец чудес / Wonderwell (2023) WEB-DL [H.264/1080p]

Ответить на тему
 
Автор Сообщение

admin ®

Пол: Не указан

Стаж: 4 месяца 23 дня

Сообщений: 10110

Создавать темы 30-Янв-2024 17:24

[Цитировать]

Колодец чудес / Wonderwell (2023) WEB-DL - Производство: Италия, США, Strange Quark Films
Жанр: фэнтези, драма, семейный
Режиссер: Влад Марсавин
Актеры: Кэрри Фишер, Рита Ора, Kiera Milward, Нелл Тайгер Фри, Себастьян Крофт, Винсент Спано, Меган Доддс, Ллойд Оуэн, Никколо Бесио, Romany Gilmour и др.
Описание:
Сказка о взрослении, действие которой происходит между современной Италией и воображаемым царством за ее пределами. Сюжет рассказывает о Вайолет, наивной и любознательной 12-летней девочке и захватывающем путешествии, которое навсегда изменит ее мир.
Рейтинг MPAA: PG-13 (детям до 13 лет просмотр нежелателен)
Релиз от: New-Team_JNS82
Продолжительность: 01:36:08
Качество видео: WEB-DL
Перевод: Многоголосый профессиональный (TVShows)
Язык озвучки: Русский, Английский
Субтитры: Английские (Full, SDH)
Видео: AVC/H.264, 1920x800, ~5208 Kbps
Аудио 1: AC3, 6 ch, 384 Kbps, русский (TVShows)
Аудио 2: E-AC3, 6 ch, 640 Kbps, английский

MediaInfo:

General
Complete name : Wonderwell (2023) WEB-DL 1080p.mkv
Format : Matroska
Format version : Version 4
File size : 4.19 GiB
Duration : 1 h 36 min
Overall bit rate : 6 235 kb/s
Frame rate : 23.976 FPS
Movie name : Wonderwell.2023.1080p.AMZN_от New-Team_JNS82
Encoded date : 2023-08-19 10:37:41 UTC
Writing application : mkvmerge v59.0.0 ('Shining Star') 64-bit
Writing library : libebml v1.4.2 + libmatroska v1.6.4
Cover : Yes
Attachments : cover.png
IMDB : tt6195756
TMDB : movie/456483
Video
ID : 1
Format : AVC
Format/Info : Advanced Video Codec
Format profile : High@L4
Format settings : CABAC / 4 Ref Frames
Format settings, CABAC : Yes
Format settings, Reference frames : 4 frames
Codec ID : V_MPEG4/ISO/AVC
Duration : 1 h 36 min
Bit rate mode : Constant
Bit rate : 5 208 kb/s
Nominal bit rate : 10 000 kb/s
Width : 1 920 pixels
Height : 800 pixels
Display aspect ratio : 2.40:1
Frame rate mode : Constant
Frame rate : 23.976 (24000/1001) FPS
Color space : YUV
Chroma subsampling : 4:2:0
Bit depth : 8 bits
Scan type : Progressive
Bits/(Pixel*Frame) : 0.141
Stream size : 3.50 GiB (84%)
Default : Yes
Forced : No
Color range : Limited
Color primaries : BT.709
Transfer characteristics : BT.709
Matrix coefficients : BT.709
Audio #1
ID : 2
Format : AC-3
Format/Info : Audio Coding 3
Commercial name : Dolby Digital
Codec ID : A_AC3
Duration : 1 h 36 min
Bit rate mode : Constant
Bit rate : 384 kb/s
Channel(s) : 6 channels
Channel layout : L R C LFE Ls Rs
Sampling rate : 48.0 kHz
Frame rate : 31.250 FPS (1536 SPF)
Compression mode : Lossy
Stream size : 264 MiB (6%)
Title : MVO - TVShows
Language : Russian
Service kind : Complete Main
Default : Yes
Forced : No
Audio #2
ID : 3
Format : E-AC-3
Format/Info : Enhanced AC-3
Commercial name : Dolby Digital Plus
Codec ID : A_EAC3
Duration : 1 h 36 min
Bit rate mode : Constant
Bit rate : 640 kb/s
Channel(s) : 6 channels
Channel layout : L R C LFE Ls Rs
Sampling rate : 48.0 kHz
Frame rate : 31.250 FPS (1536 SPF)
Compression mode : Lossy
Stream size : 440 MiB (10%)
Title : Original
Language : English
Service kind : Complete Main
Default : No
Forced : No
Text #1
ID : 4
Format : UTF-8
Codec ID : S_TEXT/UTF8
Codec ID/Info : UTF-8 Plain Text
Duration : 1 h 33 min
Bit rate : 36 b/s
Frame rate : 0.182 FPS
Count of elements : 1026
Stream size : 25.0 KiB (0%)
Title : [full]
Language : English (US)
Default : No
Forced : No
Text #2
ID : 5
Format : UTF-8
Codec ID : S_TEXT/UTF8
Codec ID/Info : UTF-8 Plain Text
Duration : 1 h 36 min
Bit rate : 56 b/s
Frame rate : 0.288 FPS
Count of elements : 1661
Stream size : 39.8 KiB (0%)
Title : [SDH]
Language : English (US)
Default : No
Forced : No
Скриншоты:
Все одноименные релизы в КлубеВремя раздачи: 24/7 (минимум до появления первых 3-5 скачавших)
[Профиль] [ЛС]
Показать сообщения:    
Ответить на тему

Текущее время: 22-Фев 01:37

Часовой пояс: UTC ± 0



Вы не можете начинать темы
Вы не можете отвечать на сообщения
Вы не можете редактировать свои сообщения
Вы не можете удалять свои сообщения
Вы не можете голосовать в опросах
Вы не можете прикреплять файлы к сообщениям
Вы не можете скачивать файлы

[  Время выполнения: 0,045 сек  |  MySQL: 0,003 сек (6%) · 3 запр.  |  GZIP выкл  |  Память: 421,85 KB / 1,74 MB / 1,36 MB  |  Лимит: 19 20 19  ]