Безумная поездочка / Joy Ride (2023) WEB-DL [H.265/2160p] [4K, SDR, 10-bit]

Ответить на тему
 
Автор Сообщение

admin ®

Пол: Не указан

Стаж: 5 месяца

Сообщений: 10110

Создавать темы 30-Янв-2024 17:23

[Цитировать]

Безумная поездочка / Joy Ride (2023) WEB-DL [H.265/2160p] «Эпическое путешествие из Америки в Азию»- Производство: США, Великобритания, Lionsgate, Point Grey Pictures
Жанр: комедия
Режиссер: Аделе Лим
Актеры: Эшли Пак, Шерри Кола, Стефани Сюй, Сабрина Ву, Дэбби Фэн, Кеннет Лью, Энни Мумоло, Дэвид Денман, Белль Чжан, Леннон Е
Описание:
Одри — американка китайского происхождения, удочерённая ещё в младенчестве — отправляется в командировку в Пекин закрыть сделку, от которой зависит её карьера. В качестве переводчика она берёт с собой Лоло, лучшую подругу из семьи китайских мигрантов, и в аэропорту узнаёт, что та ещё позвала с ними свою кузину-фанатку кей-попа, а в Китае к ним присоединяется бывшая сокурсница Кэт, актриса популярных дорам. Но китайский партнёр заявляет, что не будет вести бизнес с тем, кто не знает своего происхождения. Теперь вся шумная компания отправляется на поиски биологической матери Одри.
Возраст: 16+ (зрителям, достигшим 16 лет)
Рейтинг MPAA: R (лицам до 17 лет обязательно присутствие взрослого)
Релиз от: Atla22®
Продолжительность: 01:34:48
Качество видео: WEB-DL
Перевод: Многоголосый профессиональный (HDRezka Studio)
Язык озвучки: русский, английский
Субтитры: русские (forced), английские (SDH)
Видео: HEVC/H.265, 3824х1592, ~20.0 Мbps
Аудио 1: AC3, 6 ch, 448 kbps, русский (MVO HDRezka Studio)
Аудио 2: AC3, 6 ch, 448 kbps, русский (MVO HDRezka Studio) (18+) без цензуры
Аудио 3: AC3, 6 ch, 640 kbps, английский

MediaInfo:

Общее
Уникальный идентификатор : 203211721700413016275599989087076439552 (0x98E1276BB6B706818BB933D36BB95600)
Полное имя : Безумная поездочка. 2023 (HEVC.SDR.WEB-DL 2160p).mkv
Формат : Matroska
Версия формата : Version 2
Размер файла : 14,6 Гбайт
Продолжительность : 1 ч. 34 м.
Общий поток : 22,0 Мбит/сек
Частота кадров : 23,976 кадра/сек
Название фильма : Joy.Ride.2023.HEVC/h.265.SDR.WEB-DL 2160p.Atla22
Дата кодирования : 2023-08-20 13:17:32 UTC
Программа кодирования : mkvmerge v7.8.0 ('River Man') 32bit built on Apr 3 2015 12:11:22
Библиотека кодирования : libebml v1.3.1 + libmatroska v1.4.2
Обложка : Yes
Attachments : Cover_Joy.Ride.jpg
Видео
Идентификатор : 1
Формат : HEVC
Формат/Информация : High Efficiency Video Coding
Профиль формата : Main 10@L5@High
Идентификатор кодека : V_MPEGH/ISO/HEVC
Продолжительность : 1 ч. 34 м.
Битрейт : 20,0 Мбит/сек
Ширина : 3 824 пикселя
Высота : 1 592 пикселя
Соотношение сторон : 2,40:1
Режим частоты кадров : Постоянный
Частота кадров : 23,976 (24000/1001) кадра/сек
Цветовое пространство : YUV
Субдискретизация насыщенности : 4:2:0
Битовая глубина : 10 бит
Бит/(Пиксели*Кадры) : 0.137
Размер потока : 13,2 Гбайт (91%)
Язык : English
Default : Да
Forced : Нет
Цветовой диапазон : Limited
Основные цвета : BT.709
Характеристики трансфера : BT.709
Коэффициенты матрицы : BT.709
Аудио #1
Идентификатор : 2
Формат : AC-3
Формат/Информация : Audio Coding 3
Коммерческое название : Dolby Digital
Идентификатор кодека : A_AC3
Продолжительность : 1 ч. 34 м.
Вид битрейта : Постоянный
Битрейт : 448 Кбит/сек
Каналы : 6 каналов
Channel layout : L R C LFE Ls Rs
Частота : 48,0 КГц
Частота кадров : 31,250 кадров/сек (1536 SPF)
Метод сжатия : С потерями
Размер потока : 304 Мбайт (2%)
Заголовок : HDRezka Studio
Язык : Russian
Service kind : Complete Main
Default : Да
Forced : Нет
Аудио #2
Идентификатор : 3
Формат : AC-3
Формат/Информация : Audio Coding 3
Коммерческое название : Dolby Digital
Идентификатор кодека : A_AC3
Продолжительность : 1 ч. 34 м.
Вид битрейта : Постоянный
Битрейт : 448 Кбит/сек
Каналы : 6 каналов
Channel layout : L R C LFE Ls Rs
Частота : 48,0 КГц
Частота кадров : 31,250 кадров/сек (1536 SPF)
Метод сжатия : С потерями
Размер потока : 304 Мбайт (2%)
Заголовок : HDRezka Studio (18+)
Язык : Russian
Service kind : Complete Main
Default : Нет
Forced : Нет
Аудио #3
Идентификатор : 4
Формат : AC-3
Формат/Информация : Audio Coding 3
Коммерческое название : Dolby Digital
Идентификатор кодека : A_AC3
Продолжительность : 1 ч. 34 м.
Вид битрейта : Постоянный
Битрейт : 640 Кбит/сек
Каналы : 6 каналов
Channel layout : L R C LFE Ls Rs
Частота : 48,0 КГц
Частота кадров : 31,250 кадров/сек (1536 SPF)
Метод сжатия : С потерями
Размер потока : 434 Мбайт (3%)
Язык : English
Service kind : Complete Main
Default : Нет
Forced : Нет
Текст #1
Идентификатор : 5
Формат : UTF-8
Идентификатор кодека : S_TEXT/UTF8
Идентификатор кодека/Информация : UTF-8 Plain Text
Заголовок : Forced
Язык : Russian
Default : Да
Forced : Да
Текст #2
Идентификатор : 6
Формат : UTF-8
Идентификатор кодека : S_TEXT/UTF8
Идентификатор кодека/Информация : UTF-8 Plain Text
Заголовок : SDH
Язык : English
Default : Нет
Forced : Нет
Меню
00:00:00.000 : en:Chapter 01
00:02:23.184 : en:Chapter 02
00:15:00.358 : en:Chapter 03
00:28:34.714 : en:Chapter 04
00:41:50.051 : en:Chapter 05
00:56:01.569 : en:Chapter 06
01:06:22.399 : en:Chapter 07
01:18:51.690 : en:Chapter 08
01:28:05.744 : en:Chapter 09
Скриншоты:
Все одноименные релизы в КлубеВремя раздачи: 24/7 (круглосуточно) (минимум до появления первых 3-5 скачавших)
[Профиль] [ЛС]
Показать сообщения:    
Ответить на тему

Текущее время: 28-Фев 23:42

Часовой пояс: UTC ± 0



Вы не можете начинать темы
Вы не можете отвечать на сообщения
Вы не можете редактировать свои сообщения
Вы не можете удалять свои сообщения
Вы не можете голосовать в опросах
Вы не можете прикреплять файлы к сообщениям
Вы не можете скачивать файлы

[  Время выполнения: 0,032 сек  |  MySQL: 0,003 сек (9%) · 3 запр.  |  GZIP выкл  |  Память: 422,29 KB / 1,73 MB / 1,35 MB  |  Лимит: 8 9 9  ]