Плантация Джонса / Jones Plantation (2023) WEB-DLRip [MVO] [AD]

Ответить на тему
 
Автор Сообщение

admin ®

Пол: Не указан

Стаж: 4 месяца 27 дня

Сообщений: 10110

Создавать темы 30-Янв-2024 17:23

[Цитировать]

Плантация Джонса / Jones Plantation (2023) WEB-DLRip- Производство: США / Drew MediaVigilante Films
Жанр: драма
Режиссер: Эндрю Треглиа
Актеры: Морис Джонсон, Ли Голман, Дж.Дж. Зеленый, Jay T. Rockwell, Phillip C. Washington, Amye Gousset, Keith Lamont Johnson, Trivon Howard, Deayanie Fagon, Antonio Harrison Jr..
Описание:
Жестокость может приручить человека, но овладеть им полностью можно лишь когда он уверует, что твоё слово закон, а послушание истина. История раба, который стал хозяином, но в его сердце не нашлось сострадания к таким же как он.
Продолжительность: 01:47:38
Качество видео: WEB-DLRip
Перевод: Многоголосый профессиональный (Синема УС)
Язык озвучки: Русский
Субтитры: Отсутствуют
Реклама: Присутствует баннер.
Видео: XviD, 720x304, ~1668 Kbps
Аудио: AC-3, 2 ch, 256 Kbps

MediaInfo:

Общее
Полное имя : D:\NNM\Плантация Джонса\Jones.Plantation.2023.WEB-DLRip.avi
Формат : AVI
Формат/Информация : Audio Video Interleave
Размер файла : 1,46 Гбайт
Продолжительность : 1 ч. 47 м.
Общий поток : 1 934 Кбит/сек
Программа кодирования : VirtualDubMod 1.5.10.3 | www.virtualdub-fr.org || (build 2550/release)
Библиотека кодирования : VirtualDubMod build 2550/release
Видео
Идентификатор : 0
Формат : MPEG-4 Visual
Профиль формата : Advanced Simple@L5
Настройки формата : BVOP1 / Custom Matrix
Параметр BVOP формата : 1
Параметр QPel формата : Нет
Параметр GMC формата : Без точки перехода
Параметр матрицы формата : Выборочная
Идентификатор кодека : XVID
Идентификатор кодека/Подсказка : XviD
Продолжительность : 1 ч. 47 м.
Битрейт : 1 668 Кбит/сек
Ширина : 720 пикселей
Высота : 304 пикселя
Соотношение сторон : 2,35:1
Частота кадров : 24,000 кадра/сек
Цветовое пространство : YUV
Субдискретизация насыщенности : 4:2:0
Битовая глубина : 8 бит
Тип развёртки : Прогрессивная
Метод сжатия : С потерями
Бит/(Пиксели*Кадры) : 0.318
Размер потока : 1,26 Гбайт (86%)
Библиотека кодирования : XviD 73
Аудио
Идентификатор : 1
Формат : AC-3
Формат/Информация : Audio Coding 3
Коммерческое название : Dolby Digital
Идентификатор кодека : 2000
Продолжительность : 1 ч. 47 м.
Вид битрейта : Постоянный
Битрейт : 256 Кбит/сек
Каналы : 2 канала
Channel layout : L R
Частота : 48,0 КГц
Частота кадров : 31,250 кадров/сек (1536 SPF)
Метод сжатия : С потерями
Размер потока : 198 Мбайт (13%)
Выравнивание : Разделение по промежуткам
Продолжительность промежутка : 42 мс. (1,00 видеокадр)
Время предзагрузки промежутка : 500 мс.
Service kind : Complete Main
Скриншоты: Все одноименные релизы в КлубеВремя раздачи: 24/7 (до 10-ти скачавших)
[Профиль] [ЛС]
Показать сообщения:    
Ответить на тему

Текущее время: 25-Фев 18:15

Часовой пояс: UTC ± 0



Вы не можете начинать темы
Вы не можете отвечать на сообщения
Вы не можете редактировать свои сообщения
Вы не можете удалять свои сообщения
Вы не можете голосовать в опросах
Вы не можете прикреплять файлы к сообщениям
Вы не можете скачивать файлы

[  Время выполнения: 0,033 сек  |  MySQL: 0,003 сек (8%) · 3 запр.  |  GZIP выкл  |  Память: 422,29 KB / 1,73 MB / 1,33 MB  |  Лимит: 17 14 11  ]