Убийственный подкаст / Susie Searches (2022) WEB-DL [H.264/1080p]

Ответить на тему
 
Автор Сообщение

admin ®

Пол: Не указан

Стаж: 5 месяца 1 день

Сообщений: 10110

Создавать темы 30-Янв-2024 17:23

[Цитировать]

Убийственный подкаст / Susie Searches (2022) WEB-DL [H.264/1080p]- Производство: США, Великобритания / 141 Entertainment, Magnetic Labs
Жанр: триллер, драма, комедия, детектив
Режиссер: Софи Каргмэн
Актеры: Кирси Клемонс, Алекс Вулф, Джим Гэффиган, Кен Марино, Дэвид Уолтон, Айзек Пауэлл, Рэйчел Сеннотт, Джеффри Оуэнс, Алекс Моффат, Долли Уэллс
Описание:
С самого детства у Сьюзи уникальный талант — она мгновенно разгадывает любые тайны. Книжные детективы для нее скучны, ведь она заранее знает, кто преступник. Повзрослев, девушка запускает собственный подкаст, в котором она рассказывает о нераскрытых преступлениях. Слушателей у нее немного, но внезапно Сьюзи все-таки находит способ проявить себя: в их тихом городке бесследно исчезает самый популярный студент колледжа.
Возраст: 18+ (Зрителям, достигшим 18 лет)
Продолжительность: 01:41:09
Качество видео: WEB-DL (1080p)
Перевод: Дублированный (КиноПоиск HD)
Язык озвучки: Русский
Субтитры: Русские (Forced, Full)
Видео: AVC/H.264, 1920x960, ~6000 Kbps
Аудио #1: AC3, 6 ch, 448 Kbps - Русский
Аудио #2: E-AC3, 6 ch, 448 Kbps - Русский

MediaInfo:

Общее
Уникальный идентификатор : 229753091379471519524764404348525236981 (0xACD8D5FA4976FE61A08C80F2E0AC52F5)
Полное имя : D:\NNM\Убийственный подкаст\Ubiystvennyiy.podkast.2022.WEB-DL.1080p.ELEKTRI4KA.UNIONGANG.mkv
Формат : Matroska
Версия формата : Version 4
Размер файла : 4,86 Гбайт
Продолжительность : 1 ч. 41 м.
Общий поток : 6 882 Кбит/сек
Название фильма : Ubiystvennyiy.podkast.2023.WEB-DL.1080p.ELEKTRI4KA.UNIONGANG.
Дата кодирования : UTC 2023-08-16 23:46:24
Программа кодирования : mkvmerge v8.3.0 ('Over the Horizon') 64bit
Библиотека кодирования : libebml v1.3.1 + libmatroska v1.4.2
Видео
Идентификатор : 1
Формат : AVC
Формат/Информация : Advanced Video Codec
Профиль формата : High@L4
Настройки формата : CABAC / 4 Ref Frames
Параметр CABAC формата : Да
Параметр RefFrames формата : 4 кадра
Идентификатор кодека : V_MPEG4/ISO/AVC
Продолжительность : 1 ч. 41 м.
Битрейт : 6 000 Кбит/сек
Ширина : 1 920 пикселей
Высота : 960 пикселей
Соотношение сторон : 2,000
Режим частоты кадров : Постоянный
Частота кадров : 25,000 кадров/сек
Цветовое пространство : YUV
Субдискретизация насыщенности : 4:2:0
Битовая глубина : 8 бит
Тип развёртки : Прогрессивная
Бит/(Пиксели*Кадры) : 0.130
Размер потока : 4,23 Гбайт (87%)
Библиотека кодирования : x264 core 157
Настройки программы : cabac=1 / ref=4 / deblock=1:0:0 / analyse=0x3:0x133 / me=umh / subme=10 / psy=1 / psy_rd=1.00:0.00 / mixed_ref=1 / me_range=24 / chroma_me=1 / trellis=2 / 8x8dct=1 / cqm=0 / deadzone=21,11 / fast_pskip=1 / chroma_qp_offset=-2 / threads=30 / lookahead_threads=5 / sliced_threads=0 / nr=0 / decimate=1 / interlaced=0 / bluray_compat=0 / stitchable=1 / constrained_intra=0 / bframes=8 / b_pyramid=2 / b_adapt=2 / b_bias=0 / direct=3 / weightb=1 / open_gop=0 / weightp=2 / keyint=250 / keyint_min=25 / scenecut=40 / intra_refresh=0 / rc_lookahead=60 / rc=2pass / mbtree=1 / bitrate=6000 / ratetol=1.0 / qcomp=0.60 / qpmin=0 / qpmax=69 / qpstep=4 / cplxblur=20.0 / qblur=0.5 / vbv_maxrate=6600 / vbv_bufsize=12000 / nal_hrd=none / filler=0 / ip_ratio=1.40 / aq=1:1.00
Default : Да
Forced : Нет
Аудио #1
Идентификатор : 2
Формат : AC-3
Формат/Информация : Audio Coding 3
Коммерческое название : Dolby Digital
Идентификатор кодека : A_AC3
Продолжительность : 1 ч. 41 м.
Вид битрейта : Постоянный
Битрейт : 448 Кбит/сек
Каналы : 6 каналов
Channel layout : L R C LFE Ls Rs
Частота : 48,0 КГц
Частота кадров : 31,250 кадров/сек (1536 SPF)
Метод сжатия : С потерями
Размер потока : 324 Мбайт (7%)
Заголовок : DUD AC3 (KP HD)
Язык : Russian
Service kind : Complete Main
Default : Да
Forced : Да
Аудио #2
Идентификатор : 3
Формат : E-AC-3
Формат/Информация : Enhanced AC-3
Коммерческое название : Dolby Digital Plus
Идентификатор кодека : A_EAC3
Продолжительность : 1 ч. 41 м.
Вид битрейта : Постоянный
Битрейт : 448 Кбит/сек
Каналы : 6 каналов
Channel layout : L R C LFE Ls Rs
Частота : 48,0 КГц
Частота кадров : 31,250 кадров/сек (1536 SPF)
Метод сжатия : С потерями
Размер потока : 324 Мбайт (7%)
Заголовок : DUB EAC3 (KP HD)
Язык : Russian
Service kind : Complete Main
Default : Нет
Forced : Нет
Текст #1
Идентификатор : 4
Формат : UTF-8
Идентификатор кодека : S_TEXT/UTF8
Идентификатор кодека/Информация : UTF-8 Plain Text
Продолжительность : 1 ч. 33 м.
Битрейт : 1 бит/сек
Count of elements : 36
Размер потока : 1,34 Кбайт (0%)
Заголовок : Forced
Язык : Russian
Default : Да
Forced : Да
Текст #2
Идентификатор : 5
Формат : UTF-8
Идентификатор кодека : S_TEXT/UTF8
Идентификатор кодека/Информация : UTF-8 Plain Text
Продолжительность : 1 ч. 35 м.
Битрейт : 86 бит/сек
Count of elements : 1448
Размер потока : 61,0 Кбайт (0%)
Заголовок : Full
Язык : Russian
Default : Нет
Forced : Нет
Скриншоты: Все одноименные релизы в КлубеВремя раздачи: 24/7 (до 10-ти скачавших)
[Профиль] [ЛС]
Показать сообщения:    
Ответить на тему

Текущее время: 29-Фев 13:12

Часовой пояс: UTC ± 0



Вы не можете начинать темы
Вы не можете отвечать на сообщения
Вы не можете редактировать свои сообщения
Вы не можете удалять свои сообщения
Вы не можете голосовать в опросах
Вы не можете прикреплять файлы к сообщениям
Вы не можете скачивать файлы

[  Время выполнения: 0,036 сек  |  MySQL: 0,003 сек (8%) · 3 запр.  |  GZIP выкл  |  Память: 422,29 KB / 1,75 MB / 1,37 MB  |  Лимит: 15 15 16  ]