Убийственный подкаст / Susie Searches (2022) WEB-DLRip

Ответить на тему
 
Автор Сообщение

admin ®

Пол: Не указан

Стаж: 4 месяца 27 дня

Сообщений: 10110

Создавать темы 30-Янв-2024 17:23

[Цитировать]

Убийственный подкаст / Susie Searches (2022) WEB-DLRip- Производство: США, Великобритания / 141 Entertainment, Magnetic Labs
Жанр: триллер, драма, комедия, детектив
Режиссер: Софи Каргмэн
Актеры: Кирси Клемонс, Алекс Вулф, Джим Гэффиган, Кен Марино, Дэвид Уолтон, Айзек Пауэлл, Рэйчел Сеннотт, Джеффри Оуэнс, Алекс Моффат, Долли Уэллс
Описание:
С самого детства у Сьюзи уникальный талант — она мгновенно разгадывает любые тайны. Книжные детективы для нее скучны, ведь она заранее знает, кто преступник. Повзрослев, девушка запускает собственный подкаст, в котором она рассказывает о нераскрытых преступлениях. Слушателей у нее немного, но внезапно Сьюзи все-таки находит способ проявить себя: в их тихом городке бесследно исчезает самый популярный студент колледжа.
Возраст: 18+ (Зрителям, достигшим 18 лет)
Продолжительность: 01:41:09
Качество видео: WEB-DLRip
Перевод: Дублированный (КиноПоиск HD)
Язык озвучки: Русский
Субтитры: Русские (Forced, Full)
Видео: XviD, 704x352, ~1612 Kbps
Аудио: AC-3, 6 ch, 448 Kbps

MediaInfo:

Общее
Полное имя : D:\NNM\Убийственный подкаст\Ubiystvennyiy.podkast.2022.WEB-DLRip.ELEKTRI4KA.UNIONGANG\Ubiystvennyiy.podkast.2022.WEB-DLRip.ELEKTRI4KA.UNIONGANG.avi
Формат : AVI
Формат/Информация : Audio Video Interleave
Размер файла : 1,46 Гбайт
Продолжительность : 1 ч. 41 м.
Общий поток : 2 069 Кбит/сек
Программа кодирования : VirtualDubMod 1.5.10.3 | www.virtualdub-fr.org || (build 2550/release)
Библиотека кодирования : VirtualDubMod build 2550/release
Видео
Идентификатор : 0
Формат : MPEG-4 Visual
Профиль формата : Advanced Simple@L5
Настройки формата : BVOP1 / Custom Matrix
Параметр BVOP формата : 1
Параметр QPel формата : Нет
Параметр GMC формата : Без точки перехода
Параметр матрицы формата : Выборочная
Идентификатор кодека : XVID
Идентификатор кодека/Подсказка : XviD
Продолжительность : 1 ч. 41 м.
Битрейт : 1 612 Кбит/сек
Ширина : 704 пикселя
Высота : 352 пикселя
Соотношение сторон : 2,000
Частота кадров : 25,000 кадров/сек
Цветовое пространство : YUV
Субдискретизация насыщенности : 4:2:0
Битовая глубина : 8 бит
Тип развёртки : Прогрессивная
Метод сжатия : С потерями
Бит/(Пиксели*Кадры) : 0.260
Размер потока : 1,14 Гбайт (78%)
Библиотека кодирования : XviD 67
Аудио
Идентификатор : 1
Формат : AC-3
Формат/Информация : Audio Coding 3
Коммерческое название : Dolby Digital
Идентификатор кодека : 2000
Продолжительность : 1 ч. 41 м.
Вид битрейта : Постоянный
Битрейт : 448 Кбит/сек
Каналы : 6 каналов
Channel layout : L R C LFE Ls Rs
Частота : 48,0 КГц
Частота кадров : 31,250 кадров/сек (1536 SPF)
Метод сжатия : С потерями
Размер потока : 324 Мбайт (22%)
Выравнивание : Разделение по промежуткам
Продолжительность промежутка : 40 мс. (1,00 видеокадр)
Время предзагрузки промежутка : 500 мс.
Service kind : Complete Main
Скриншоты: Все одноименные релизы в КлубеВремя раздачи: 24/7 (до 10-ти скачавших)
[Профиль] [ЛС]
Показать сообщения:    
Ответить на тему

Текущее время: 25-Фев 21:15

Часовой пояс: UTC ± 0



Вы не можете начинать темы
Вы не можете отвечать на сообщения
Вы не можете редактировать свои сообщения
Вы не можете удалять свои сообщения
Вы не можете голосовать в опросах
Вы не можете прикреплять файлы к сообщениям
Вы не можете скачивать файлы

[  Время выполнения: 0,033 сек  |  MySQL: 0,004 сек (13%) · 5 запр.  |  GZIP выкл  |  Память: 422,29 KB / 1,72 MB / 1,32 MB  |  Лимит: 11 13 12  ]