Кокаиновый медведь / Cocaine Bear (2023) BDRip [H.264]

Ответить на тему
 
Автор Сообщение

admin ®

Пол: Не указан

Стаж: 4 месяца 23 дня

Сообщений: 10110

Создавать темы 30-Янв-2024 17:22

[Цитировать]

Кокаиновый медведь / Cocaine Bear (2023) BDRip [H.264]- Производство: США / Universal Pictures, Brownstone Productions (II), Lord Miller
Жанр: триллер, комедия
Режиссер: Элизабет Бэнкс
Актеры: Кери Рассел, Олден Эренрайк, О’Ши Джексон мл, Рэй Лиотта, Исайя Уитлок мл, Бруклин Принс, Кристиан Конвери, Марго Мартиндейл, Джесси Тайлер Фергюсон, Ханна Хукстра
Описание:
1985 год. Из пролетающего на лесами штата Джорджия самолёта наркокурьер выбрасывает несколько пакетов кокаина, часть из них находит барибал и съедает содержимое. Животное приходит в неистовство, и теперь всем туристам, рейнджерам и случайно попавшимся ему на пути бедолагам сильно не поздоровится.
Рейтинг MPAA: R (лицам до 17 лет обязательно присутствие взрослого)
Продолжительность: 01:35:34
Качество видео: BDRip-AVC
Перевод: Дублированный (Red Head Sound)
Язык озвучки: Русский
Субтитры: Русские, английские (full, SDH)
Видео: AVC/H.264, 1024x428, ~1926 Kbps
Аудио: AC-3, 6 ch, 384 Kbps

MediaInfo:

Общее
Уникальный идентификатор : 338925452386303788167083733086423798246 (0xFEFAAAF2C01AC865B4A380023DF8D1E6)
Полное имя : D:\NNM\Кокаиновый медведь\Cocaine.Bear.2023.BDRip.x264.seleZen.mkv
Формат : Matroska
Версия формата : Version 4
Размер файла : 1,54 Гбайт
Продолжительность : 1 ч. 35 м.
Общий поток : 2 311 Кбит/сек
Название фильма : Cocaine.Bear.2023.BDRip.x264.seleZen
Дата кодирования : UTC 2023-04-10 20:03:33
Программа кодирования : mkvmerge v75.0.0 ('Goliath') 64-bit
Библиотека кодирования : libebml v1.4.4 + libmatroska v1.7.1
Обложка : Yes
Attachments : cover.jpg / small_cover.jpg
Видео
Идентификатор : 1
Формат : AVC
Формат/Информация : Advanced Video Codec
Профиль формата : High@L4.1
Настройки формата : CABAC / 12 Ref Frames
Параметр CABAC формата : Да
Параметр RefFrames формата : 12 кадров
Идентификатор кодека : V_MPEG4/ISO/AVC
Продолжительность : 1 ч. 35 м.
Битрейт : 1 926 Кбит/сек
Ширина : 1 024 пикселя
Высота : 428 пикселей
Соотношение сторон : 2,40:1
Режим частоты кадров : Постоянный
Частота кадров : 23,976 (24000/1001) кадра/сек
Цветовое пространство : YUV
Субдискретизация насыщенности : 4:2:0
Битовая глубина : 8 бит
Тип развёртки : Прогрессивная
Бит/(Пиксели*Кадры) : 0.183
Размер потока : 1,28 Гбайт (83%)
Заголовок : -=DoMiNo=-
Библиотека кодирования : x264 core 164 r3106+55M 24adf88 t_mod_New | by -=DoMiNo=- | X86_64]
Настройки программы : cabac=1 / ref=12 / deblock=1:-3:-2 / analyse=0x3:0x133 / me=umh / subme=10 / psy=1 / fade_compensate=0.00 / psy_rd=1.02:0.03 / mixed_ref=1 / me_range=32 / chroma_me=1 / trellis=2 / 8x8dct=1 / cqm=0 / deadzone=21,11 / fast_pskip=0 / chroma_qp_offset=-3 / threads=17 / lookahead_threads=3 / sliced_threads=0 / nr=0 / decimate=1 / interlaced=0 / bluray_compat=0 / constrained_intra=0 / fgo=0 / bframes=14 / b_pyramid=2 / b_adapt=2 / b_bias=0 / direct=3 / weightb=1 / open_gop=0 / weightp=2 / keyint=240 / keyint_min=23 / scenecut=40 / intra_refresh=0 / rc_lookahead=60 / rc=crf / mbtree=0 / crf=18.0000 / qcomp=0.60 / qpmin=0:0:0 / qpmax=69:69:69 / qpstep=4 / vbv_maxrate=50000 / vbv_bufsize=62500 / crf_max=0.0 / nal_hrd=none / filler=0 / ip_ratio=1.35 / pb_ratio=1.25 / aq=3:0.90 / aq-sensitivity=10.00 / aq-factor=1.00:1.00:1.00 / aq2=0 / aq3=0
Язык : English
Default : Да
Forced : Нет
Аудио
Идентификатор : 2
Формат : AC-3
Формат/Информация : Audio Coding 3
Коммерческое название : Dolby Digital
Идентификатор кодека : A_AC3
Продолжительность : 1 ч. 35 м.
Вид битрейта : Постоянный
Битрейт : 384 Кбит/сек
Каналы : 6 каналов
Channel layout : L R C LFE Ls Rs
Частота : 48,0 КГц
Частота кадров : 31,250 кадров/сек (1536 SPF)
Метод сжатия : С потерями
Размер потока : 263 Мбайт (17%)
Заголовок : Dub_[Red Head Sound]
Язык : Russian
Service kind : Complete Main
Default : Да
Forced : Да
Текст #1
Идентификатор : 3
Формат : UTF-8
Идентификатор кодека : S_TEXT/UTF8
Идентификатор кодека/Информация : UTF-8 Plain Text
Продолжительность : 1 ч. 29 м.
Битрейт : 92 бит/сек
Count of elements : 1460
Размер потока : 60,7 Кбайт (0%)
Заголовок : Full_[Cool Story Blog}_(18+)
Язык : Russian
Default : Нет
Forced : Нет
Текст #2
Идентификатор : 4
Формат : UTF-8
Идентификатор кодека : S_TEXT/UTF8
Идентификатор кодека/Информация : UTF-8 Plain Text
Продолжительность : 1 ч. 30 м.
Битрейт : 58 бит/сек
Count of elements : 1583
Размер потока : 39,2 Кбайт (0%)
Заголовок : Full
Язык : English
Default : Нет
Forced : Нет
Текст #3
Идентификатор : 5
Формат : UTF-8
Идентификатор кодека : S_TEXT/UTF8
Идентификатор кодека/Информация : UTF-8 Plain Text
Продолжительность : 1 ч. 35 м.
Битрейт : 68 бит/сек
Count of elements : 1929
Размер потока : 47,7 Кбайт (0%)
Заголовок : SDH
Язык : English
Default : Нет
Forced : Нет
Меню
00:00:00.000 : en:Chapter 01
00:06:52.578 : en:Chapter 02
00:09:20.476 : en:Chapter 03
00:13:01.113 : en:Chapter 04
00:16:24.692 : en:Chapter 05
00:18:45.999 : en:Chapter 06
00:23:40.168 : en:Chapter 07
00:27:49.876 : en:Chapter 08
00:33:35.972 : en:Chapter 09
00:41:29.820 : en:Chapter 10
00:48:01.461 : en:Chapter 11
00:55:21.860 : en:Chapter 12
00:59:55.842 : en:Chapter 13
01:04:02.839 : en:Chapter 14
01:07:43.100 : en:Chapter 15
01:12:57.956 : en:Chapter 16
01:16:36.633 : en:Chapter 17
01:21:53.992 : en:Chapter 18
01:26:32.854 : en:Chapter 19
01:29:30.156 : en:Chapter 20
Скриншоты:
Все одноименные релизы в КлубеВремя раздачи: 24/7 (до первых 10-ти скачавших)
[Профиль] [ЛС]
Показать сообщения:    
Ответить на тему

Текущее время: 22-Фев 02:20

Часовой пояс: UTC ± 0



Вы не можете начинать темы
Вы не можете отвечать на сообщения
Вы не можете редактировать свои сообщения
Вы не можете удалять свои сообщения
Вы не можете голосовать в опросах
Вы не можете прикреплять файлы к сообщениям
Вы не можете скачивать файлы

[  Время выполнения: 0,045 сек  |  MySQL: 0,004 сек (10%) · 5 запр.  |  GZIP выкл  |  Память: 421,85 KB / 1,74 MB / 1,37 MB  |  Лимит: 8 8 9  ]