Город астероидов / Asteroid City (2023) BDRemux [H.264/1080p]

Ответить на тему
 
Автор Сообщение

admin ®

Пол: Не указан

Стаж: 4 месяца 23 дня

Сообщений: 10110

Создавать темы 30-Янв-2024 17:22

[Цитировать]

Город астероидов / Asteroid City (2023) BDRemux - Производство: США, Германия / American Empirical Pictures, Focus Features, ...
Жанр: фантастика, драма, мелодрама, комедия
Режиссер: Уэс Андерсон
Актеры: Джейсон Шварцман, Скарлетт Йоханссон, Том Хэнкс, Джеффри Райт, Тильда Суинтон, Эдвард Нортон, Брайан Крэнстон, Эдриан Броуди, Майкл Маггарт, Хоуп Дэвис
Описание: 1955 год, небольшой вымышленный городок, расположенный возле кратера, оставшегося после падения астероида тысячи лет назад. Каждый год в этом месте проводится собрание юных астрономов, в котором участвуют ученики, их семьи, учителя, а также военные. Очередной такой слёт резко прерывается событиями, способными изменить мир.
Рейтинг MPAA: PG-13 (детям до 13 лет просмотр нежелателен)
Релиз от: DoMiNo & seleZen
Продолжительность: 01:44:59
Качество видео: BDRemux
Перевод: Дублированный (HotVoice 41), многоголосый профессиональный (Jaskier, HDRezka Studio, TVShows), авторский (Ю. Сербин)
Язык озвучки: Русский, английский
Субтитры: Русские (forced, full), английские (full, SDH)
Видео: AVC/H.264, 1920х1080, ~29.5 Mbps
Аудио 1: AC3, 6 ch, 448 Kbps, | русский (DUB HotVoice 41)
Аудио 2: E-AC3, 6 ch, 768 Kbps, | русский (DUB HotVoice 41)
Аудио 3: AC3, 6 ch, 448 Kbps, | русский (MVO HDRezka Studio)
Аудио 4: AC3, 6 ch, 384 Kbps, | русский (MVO Jaskier)
Аудио 5: AC3, 6 ch, 384 Kbps, | русский (MVO TVShows)
Аудио 6: AC3, 6 ch, 384 Kbps, | русский (AVO Ю. Сербин)
Аудио 7: DTS-HD MA, 8 ch, 3701 Kbps | английский

MediaInfo:

General
Complete name : Asteroid.City.2023.BDREMUX.1080p.seleZen.mkv
Format : Matroska
Format version : Version 4
File size : 25.7 GiB
Duration : 1 h 44 min
Overall bit rate mode : Variable
Overall bit rate : 35.1 Mb/s
Frame rate : 23.976 FPS
Movie name : Asteroid City 2023 from seleZen
Encoded date : 2023-08-17 18:12:27 UTC
Writing application : mkvmerge v77.0 ('Elemental') 64-bit
Writing library : libebml v1.4.4 + libmatroska v1.7.1
Video
ID : 1
Format : AVC
Format/Info : Advanced Video Codec
Format profile : High@L4.1
Format settings : CABAC / 4 Ref Frames
Format settings, CABAC : Yes
Format settings, Reference : 4 frames
Codec ID : V_MPEG4/ISO/AVC
Duration : 1 h 44 min
Bit rate mode : Variable
Bit rate : 28.6 Mb/s
Maximum bit rate : 29.5 Mb/s
Width : 1 920 pixels
Height : 1 080 pixels
Display aspect ratio : 16:9
Frame rate mode : Constant
Frame rate : 23.976 (24000/1001) FPS
Color space : YUV
Chroma subsampling : 4:2:0
Bit depth : 8 bits
Scan type : Progressive
Bits/(Pixel*Frame) : 0.575
Stream size : 21.0 GiB (81%)
Language : English
Default : Yes
Forced : No
Audio #1
ID : 2
Format : AC-3
Format/Info : Audio Coding 3
Commercial name : Dolby Digital
Codec ID : A_AC3
Duration : 1 h 44 min
Bit rate mode : Constant
Bit rate : 448 kb/s
Channel(s) : 6 channels
Channel layout : L R C LFE Ls Rs
Sampling rate : 48.0 kHz
Frame rate : 31.250 FPS (1536 SPF)
Compression mode : Lossy
Stream size : 336 MiB (1%)
Title : Dub_HotVoice 41
Language : Russian
Service kind : Complete Main
Default : Yes
Forced : No
Audio #2
ID : 3
Format : E-AC-3
Format/Info : Enhanced AC-3
Commercial name : Dolby Digital Plus
Codec ID : A_EAC3
Duration : 1 h 44 min
Bit rate mode : Constant
Bit rate : 768 kb/s
Channel(s) : 6 channels
Channel layout : L R C LFE Ls Rs
Sampling rate : 48.0 kHz
Frame rate : 31.250 FPS (1536 SPF)
Compression mode : Lossy
Stream size : 577 MiB (2%)
Title : Dub_HotVoice 41
Language : Russian
Service kind : Complete Main
Default : No
Forced : No
Audio #3
ID : 4
Format : AC-3
Format/Info : Audio Coding 3
Commercial name : Dolby Digital
Codec ID : A_AC3
Duration : 1 h 44 min
Bit rate mode : Constant
Bit rate : 448 kb/s
Channel(s) : 6 channels
Channel layout : L R C LFE Ls Rs
Sampling rate : 48.0 kHz
Frame rate : 31.250 FPS (1536 SPF)
Compression mode : Lossy
Stream size : 336 MiB (1%)
Title : MVO_HDRezka Studio
Language : Russian
Service kind : Complete Main
Default : No
Forced : No
Audio #4
ID : 5
Format : AC-3
Format/Info : Audio Coding 3
Commercial name : Dolby Digital
Codec ID : A_AC3
Duration : 1 h 44 min
Bit rate mode : Constant
Bit rate : 384 kb/s
Channel(s) : 6 channels
Channel layout : L R C LFE Ls Rs
Sampling rate : 48.0 kHz
Frame rate : 31.250 FPS (1536 SPF)
Compression mode : Lossy
Stream size : 288 MiB (1%)
Title : MVO_Jaskier
Language : Russian
Service kind : Complete Main
Default : No
Forced : No
Audio #5
ID : 6
Format : AC-3
Format/Info : Audio Coding 3
Commercial name : Dolby Digital
Codec ID : A_AC3
Duration : 1 h 44 min
Bit rate mode : Constant
Bit rate : 384 kb/s
Channel(s) : 6 channels
Channel layout : L R C LFE Ls Rs
Sampling rate : 48.0 kHz
Frame rate : 31.250 FPS (1536 SPF)
Compression mode : Lossy
Stream size : 288 MiB (1%)
Title : MVO_TVShows
Language : Russian
Service kind : Complete Main
Default : No
Forced : No
Audio #6
ID : 7
Format : AC-3
Format/Info : Audio Coding 3
Commercial name : Dolby Digital
Codec ID : A_AC3
Duration : 1 h 44 min
Bit rate mode : Constant
Bit rate : 384 kb/s
Channel(s) : 6 channels
Channel layout : L R C LFE Ls Rs
Sampling rate : 48.0 kHz
Frame rate : 31.250 FPS (1536 SPF)
Compression mode : Lossy
Stream size : 288 MiB (1%)
Title : AVO_Serbin
Language : Russian
Service kind : Complete Main
Default : No
Forced : No
Audio #7
ID : 8
Format : DTS XLL
Format/Info : Digital Theater Systems
Commercial name : DTS-HD Master Audio
Codec ID : A_DTS
Duration : 1 h 44 min
Bit rate mode : Variable
Bit rate : 3 701 kb/s
Channel(s) : 8 channels
Channel layout : C L R LFE Lb Rb Lss Rss
Sampling rate : 48.0 kHz
Frame rate : 93.750 FPS (512 SPF)
Bit depth : 24 bits
Compression mode : Lossless
Stream size : 2.71 GiB (11%)
Title : Original
Language : English
Default : No
Forced : No
Text #1
ID : 9
Format : UTF-8
Codec ID : S_TEXT/UTF8
Codec ID/Info : UTF-8 Plain Text
Duration : 1 h 30 min
Bit rate : 6 b/s
Frame rate : 0.016 FPS
Count of elements : 86
Stream size : 4.36 KiB (0%)
Title : Forced
Language : Russian
Default : Yes
Forced : No
Text #2
ID : 10
Format : UTF-8
Codec ID : S_TEXT/UTF8
Codec ID/Info : UTF-8 Plain Text
Duration : 1 h 37 min
Bit rate : 138 b/s
Frame rate : 0.298 FPS
Count of elements : 1752
Stream size : 99.2 KiB (0%)
Title : Full_FOCS & CHACUN
Language : Russian
Default : No
Forced : No
Text #3
ID : 11
Format : UTF-8
Codec ID : S_TEXT/UTF8
Codec ID/Info : UTF-8 Plain Text
Duration : 1 h 43 min
Bit rate : 83 b/s
Frame rate : 0.313 FPS
Count of elements : 1949
Stream size : 63.8 KiB (0%)
Title : Full
Language : English
Default : No
Forced : No
Text #4
ID : 12
Format : UTF-8
Codec ID : S_TEXT/UTF8
Codec ID/Info : UTF-8 Plain Text
Duration : 1 h 43 min
Bit rate : 89 b/s
Frame rate : 0.344 FPS
Count of elements : 2144
Stream size : 68.5 KiB (0%)
Title : SDH
Language : English
Default : No
Forced : No
Menu
00:00:00.000 : en:Chapter 1
00:05:01.676 : en:Chapter 2
00:09:55.553 : en:Chapter 3
00:12:40.259 : en:Chapter 4
00:23:25.695 : en:Chapter 5
00:25:44.960 : en:Chapter 6
00:30:06.221 : en:Chapter 7
00:33:42.145 : en:Chapter 8
00:39:54.809 : en:Chapter 9
00:46:26.033 : en:Chapter 10
00:54:39.609 : en:Chapter 11
00:57:29.654 : en:Chapter 12
01:07:21.120 : en:Chapter 13
01:12:12.870 : en:Chapter 14
01:15:25.145 : en:Chapter 15
01:22:13.094 : en:Chapter 16
01:25:48.852 : en:Chapter 17
01:29:39.707 : en:Chapter 18
01:33:45.661 : en:Chapter 19
01:37:51.282 : en:Chapter 20
Скриншоты:
Все одноименные релизы в КлубеВремя раздачи: 24/7 (минимум до появления первых 3-5 скачавших)
[Профиль] [ЛС]
Показать сообщения:    
Ответить на тему

Текущее время: 22-Фев 00:23

Часовой пояс: UTC ± 0



Вы не можете начинать темы
Вы не можете отвечать на сообщения
Вы не можете редактировать свои сообщения
Вы не можете удалять свои сообщения
Вы не можете голосовать в опросах
Вы не можете прикреплять файлы к сообщениям
Вы не можете скачивать файлы

[  Время выполнения: 0,053 сек  |  MySQL: 0,003 сек (5%) · 3 запр.  |  GZIP выкл  |  Память: 421,85 KB / 1,75 MB / 1,37 MB  |  Лимит: 17 15 13  ]