Нефариус / Nefarious (2023) BDRip [H.264/720p] [MVO]

Ответить на тему
 
Автор Сообщение

admin ®

Пол: Не указан

Стаж: 4 месяца 23 дня

Сообщений: 10110

Создавать темы 30-Янв-2024 17:22

[Цитировать]

Нефариус / Nefarious (2023) BDRip [H.264/720p]- Производство: США / Believe Entertainment (II)
Жанр: триллер
Режиссер: Чак Конзелман, Кэри Соломон
Актеры: Шон Патрик Флэнери, Джордан Бэлфи, Джеймс Хили мл., Роберт Питерс, Том Омер, Эрик Хэнсон, Katy Hayes, Камерон Арнетт, Стелио Саванте, Джаррет ЛеМастер
Описание: По роману Стива Диза "Нечестивый сюжет" 2016 года... В день запланированной казни осуждённого серийного убийцы к нему в тюрьму приезжает врач, чтобы провести психиатрическую экспертизу. Тот с порога заявляет, что умереть всё равно не сможет, так как является демоном, а психиатр перед уходом совершит три убийства...
Рейтинг MPAA: R (лицам до 17 лет обязательно присутствие взрослого)
Релиз от: msltel
Продолжительность: 01:37:31
Качество видео: BDRip
Перевод: профессиональный многоголосый
Язык озвучки: русский, английский
Субтитры: английские
Видео: AVC/H.264, 1280x536, 3737 kbps, 23.976 fps
Аудио 1: AC3, 2 ch, 192 kbps | русский (MVO Jaskier)
Аудио 2: AC3, 2 ch, 192 kbps | русский (MVO TVShows)
Аудио 3: DTS, 6 ch, 1509 kbps | английский

MediaInfo

Общее
Уникальный идентификатор : 281739902418721296566812497363917459300 (0xD3F521A757B420211355AA8A7655CF64)
Полное имя : D:\Video\Нефариус.2023.BDRip 720p msltel.mkv
Формат : Matroska
Версия формата : Version 4
Размер файла : 3,84 Гбайт
Продолжительность : 1 ч. 37 м.
Общий поток : 5 632 Кбит/сек
Частота кадров : 23,976 кадра/сек
Название фильма : Нефариус.2023.BDRip 720p msltel
Дата кодирования : 2023-08-18 08:45:25 UTC
Программа кодирования : mkvmerge v44.0.0 ('Domino') 64-bit
Библиотека кодирования : libebml v1.3.10 + libmatroska v1.5.2
Видео
Идентификатор : 1
Формат : AVC
Формат/Информация : Advanced Video Codec
Профиль формата : High@L4.1
Настройки формата : CABAC / 12 Ref Frames
Параметр CABAC формата : Да
Параметр RefFrames формата : 12 кадров
Идентификатор кодека : V_MPEG4/ISO/AVC
Продолжительность : 1 ч. 37 м.
Битрейт : 3 737 Кбит/сек
Ширина : 1 280 пикселей
Высота : 536 пикселей
Соотношение сторон : 2,40:1
Режим частоты кадров : Постоянный
Частота кадров : 23,976 (24000/1001) кадра/сек
Цветовое пространство : YUV
Субдискретизация насыщенности : 4:2:0
Битовая глубина : 8 бит
Тип развёртки : Прогрессивная
Бит/(Пиксели*Кадры) : 0.227
Размер потока : 2,55 Гбайт (66%)
Библиотека кодирования : x264 core 164 r3085 0bb85e8
Настройки программы : cabac=1 / ref=12 / deblock=1:-1:-1 / analyse=0x3:0x113 / me=umh / subme=11 / psy=1 / psy_rd=1.00:0.00 / mixed_ref=1 / me_range=32 / chroma_me=1 / trellis=2 / 8x8dct=1 / cqm=0 / deadzone=21,11 / fast_pskip=0 / chroma_qp_offset=-2 / threads=12 / lookahead_threads=3 / sliced_threads=0 / nr=0 / decimate=0 / interlaced=0 / bluray_compat=0 / constrained_intra=0 / bframes=14 / b_pyramid=2 / b_adapt=2 / b_bias=0 / direct=1 / weightb=1 / open_gop=0 / weightp=2 / keyint=230 / keyint_min=23 / scenecut=40 / intra_refresh=0 / rc_lookahead=40 / rc=crf / mbtree=0 / crf=18.0 / qcomp=0.60 / qpmin=0 / qpmax=69 / qpstep=4 / vbv_maxrate=50000 / vbv_bufsize=62500 / crf_max=0.0 / nal_hrd=none / filler=0 / ip_ratio=1.40 / pb_ratio=1.30 / aq=3:1.00
Язык : English
Default : Да
Forced : Нет
Аудио #1
Идентификатор : 2
Формат : AC-3
Формат/Информация : Audio Coding 3
Коммерческое название : Dolby Digital
Идентификатор кодека : A_AC3
Продолжительность : 1 ч. 37 м.
Вид битрейта : Постоянный
Битрейт : 192 Кбит/сек
Каналы : 2 канала
Channel layout : L R
Частота : 48,0 КГц
Частота кадров : 31,250 кадров/сек (1536 SPF)
Метод сжатия : С потерями
Размер потока : 134 Мбайт (3%)
Заголовок : MVO Jaskier
Язык : Russian
Service kind : Complete Main
Default : Да
Forced : Нет
Аудио #2
Идентификатор : 3
Формат : AC-3
Формат/Информация : Audio Coding 3
Коммерческое название : Dolby Digital
Идентификатор кодека : A_AC3
Продолжительность : 1 ч. 37 м.
Вид битрейта : Постоянный
Битрейт : 192 Кбит/сек
Каналы : 2 канала
Channel layout : L R
Частота : 48,0 КГц
Частота кадров : 31,250 кадров/сек (1536 SPF)
Метод сжатия : С потерями
Размер потока : 134 Мбайт (3%)
Заголовок : MVO TVShows
Язык : Russian
Service kind : Complete Main
Default : Нет
Forced : Нет
Аудио #3
Идентификатор : 4
Формат : DTS
Формат/Информация : Digital Theater Systems
Идентификатор кодека : A_DTS
Продолжительность : 1 ч. 37 м.
Вид битрейта : Постоянный
Битрейт : 1 509 Кбит/сек
Каналы : 6 каналов
Channel layout : C L R Ls Rs LFE
Частота : 48,0 КГц
Частота кадров : 93,750 кадра/сек (512 SPF)
Битовая глубина : 24 бит
Метод сжатия : С потерями
Размер потока : 1,03 Гбайт (27%)
Заголовок : original
Язык : English
Default : Нет
Forced : Нет
Текст
Идентификатор : 5
Формат : UTF-8
Идентификатор кодека : S_TEXT/UTF8
Идентификатор кодека/Информация : UTF-8 Plain Text
Продолжительность : 1 ч. 30 м.
Битрейт : 76 бит/сек
Частота кадров : 0,307 кадр/сек
Count of elements : 1673
Размер потока : 50,7 Кбайт (0%)
Заголовок : английские
Язык : English
Default : Нет
Forced : Нет
Меню
00:00:00.000 : en:Chapter 1
00:02:11.297 : en:Chapter 2
00:18:49.670 : en:Chapter 3
00:30:43.424 : en:Chapter 4
00:45:13.585 : en:Chapter 5
00:50:15.846 : en:Chapter 6
01:04:01.087 : en:Chapter 7
01:10:44.156 : en:Chapter 8
01:19:06.992 : en:Chapter 9
01:25:52.897 : en:Chapter 10
01:33:27.518 : en:Chapter 11
Скриншоты:
Все одноименные релизы в КлубеВремя раздачи: 24/7 (минимум до появления первых 3-5 скачавших)
[Профиль] [ЛС]
Показать сообщения:    
Ответить на тему

Текущее время: 22-Фев 01:33

Часовой пояс: UTC ± 0



Вы не можете начинать темы
Вы не можете отвечать на сообщения
Вы не можете редактировать свои сообщения
Вы не можете удалять свои сообщения
Вы не можете голосовать в опросах
Вы не можете прикреплять файлы к сообщениям
Вы не можете скачивать файлы

[  Время выполнения: 0,042 сек  |  MySQL: 0,004 сек (10%) · 3 запр.  |  GZIP выкл  |  Память: 421,85 KB / 1,73 MB / 1,35 MB  |  Лимит: 19 19 19  ]