Рай для дурака / Fool's Paradise (2023) BDRip [H.264/1080p-LQ]

Ответить на тему
 
Автор Сообщение

admin ®

Пол: Не указан

Стаж: 7 месяца 26 дня

Сообщений: 11520

Создавать темы 30-Янв-2024 17:22

[Цитировать]

Рай для дурака / Fool's Paradise (2023) BDRip [H.264/1080p-LQ]- Производство: США / Armory Films, Page Fifty-Four Pictures, Rickard Pictures
Жанр: комедия
Режиссер: Чарли Дэй
Продюсер: Алекс Сакс
Актеры: Чарли Дэй, Кен Жонг, Кейт Бекинсейл, Эдриан Броуди, Джейсон Судейкис, Рэй Лиотта, Стив Култер, Джейсон Бейтман, Иди Фалько, Мэри Элизабет Эллис
Описание: Знаменитый актер отказывается выходить на съемочную площадку. Судьба картины под вопросом. И тут продюсер встречает на улице человека, похожего на своего капризного актера, как две капли воды. Вместе со сценаристом и непредсказуемым режиссером он решает использовать его как двойника для съемок и не только.
Возраст: 18+ (Зрителям, достигшим 18 лет)
Рейтинг MPAA: R (Лицам до 17 обязательно присутствие взрослых)
Релиз от: LORDKILL
Продолжительность: 01:38:22
Качество видео: BDRip 1080p
Перевод: Дублированный (Мосфильм-Мастер)
Язык озвучки: Русский
Субтитры: Отсутствуют
Видео: AVC/H.264, 1920x804, ~4500 Kbps
Аудио: AC3, 6 ch, 384 kbps - Русский

Mediainfo:

General
Unique ID : 330490577167358913544896914697350332304 (0xF8A22B7DF0AB9BA511913C65B484BF90)
Complete name : E:\КИНО\ДЛЯ РАЗДАЧ\Рай для дурака (2023).mkv
Format : Matroska
Format version : Version 4
File size : 3.35 GiB
Duration : 1 h 38 min
Overall bit rate : 4 872 kb/s
Frame rate : 23.976 FPS
Movie name : Рай для дурака / Fool's Paradise (2023) - #LORDKILL#
Encoded date : 2023-08-18 10:25:31 UTC
Writing application : mkvmerge v32.0.0 ('Astral Progressions') 64-bit
Writing library : libebml v1.3.7 + libmatroska v1.5.0
Video
ID : 1
Format : AVC
Format/Info : Advanced Video Codec
Format profile : High@L4.1
Format settings : CABAC / 5 Ref Frames
Format settings, CABAC : Yes
Format settings, Reference : 5 frames
Codec ID : V_MPEG4/ISO/AVC
Duration : 1 h 38 min
Bit rate : 4 500 kb/s
Width : 1 920 pixels
Height : 804 pixels
Display aspect ratio : 2.40:1
Frame rate mode : Constant
Frame rate : 23.976 (24000/1001) FPS
Color space : YUV
Chroma subsampling : 4:2:0
Bit depth : 8 bits
Scan type : Progressive
Bits/(Pixel*Frame) : 0.122
Stream size : 3.08 GiB (92%)
Writing library : x264 core 164 r3100 ed0f7a6
Encoding settings : cabac=1 / ref=5 / deblock=1:-2:-2 / analyse=0x3:0x113 / me=umh / subme=10 / psy=1 / psy_rd=1.00:0.20 / mixed_ref=1 / me_range=32 / chroma_me=1 / trellis=2 / 8x8dct=1 / cqm=0 / deadzone=21,11 / fast_pskip=0 / chroma_qp_offset=-3 / threads=24 / lookahead_threads=6 / sliced_threads=0 / nr=0 / decimate=1 / interlaced=0 / bluray_compat=0 / constrained_intra=0 / bframes=10 / b_pyramid=2 / b_adapt=2 / b_bias=0 / direct=3 / weightb=1 / open_gop=0 / weightp=2 / keyint=240 / keyint_min=23 / scenecut=40 / intra_refresh=0 / rc=2pass / mbtree=0 / bitrate=4500 / ratetol=1.0 / qcomp=0.60 / qpmin=0 / qpmax=69 / qpstep=4 / cplxblur=20.0 / qblur=0.5 / ip_ratio=1.40 / pb_ratio=1.30 / aq=1:1.00
Default : Yes
Forced : No
Audio
ID : 2
Format : AC-3
Format/Info : Audio Coding 3
Commercial name : Dolby Digital
Codec ID : A_AC3
Duration : 1 h 38 min
Bit rate mode : Constant
Bit rate : 384 kb/s
Channel(s) : 6 channels
Channel layout : L R C LFE Ls Rs
Sampling rate : 48.0 kHz
Frame rate : 31.250 FPS (1536 SPF)
Compression mode : Lossy
Stream size : 270 MiB (8%)
Title : Дубляж (Мосфильм-Мастер)
Language : Russian
Service kind : Complete Main
Default : Yes
Forced : No
Menu
00:00:00.000 : en:Chapter 01
00:07:16.435 : en:Chapter 02
00:18:38.575 : en:Chapter 03
00:26:39.513 : en:Chapter 04
00:35:20.952 : en:Chapter 05
00:42:45.271 : en:Chapter 06
00:49:49.987 : en:Chapter 07
00:57:34.576 : en:Chapter 08
01:05:40.186 : en:Chapter 09
01:15:01.497 : en:Chapter 10
01:22:24.939 : en:Chapter 11
01:32:39.554 : en:Chapter 12
Скриншоты:
Все одноименные релизы в КлубеВремя раздачи: 24/7 (круглосуточно) (до появления первых 10 скачавших)
[Профиль] [ЛС]
Показать сообщения:    
Ответить на тему

Текущее время: 24-Май 14:23

Часовой пояс: UTC ± 0



Вы не можете начинать темы
Вы не можете отвечать на сообщения
Вы не можете редактировать свои сообщения
Вы не можете удалять свои сообщения
Вы не можете голосовать в опросах
Вы не можете прикреплять файлы к сообщениям
Вы не можете скачивать файлы

[  Время выполнения: 0,039 сек  |  MySQL: 0,004 сек (9%) · 3 запр.  |  GZIP выкл  |  Память: 422,49 KB / 1,74 MB / 1,34 MB  |  Лимит: 8 9 11  ]