В паутине страха / Cobweb (2023) WEB-DL [H.265/2160p] [4K, HDR, 10-bit]

Ответить на тему
 
Автор Сообщение

admin ®

Пол: Не указан

Стаж: 4 месяца 27 дня

Сообщений: 10110

Создавать темы 30-Янв-2024 17:22

[Цитировать]

В паутине страха / Cobweb (2023) WEB-DL [H.265/2160p] [4K, HDR, 10-bit] - Производство: США / Lionsgate, Media Capital Technologies, Point Grey Pictures
Жанр: ужасы
Режиссер: Сэмюэл Бодин
Продюсер: Эван Голдберг, Рой Ли, Сет Роген, ...
Актеры: Вуди Норман, Лиззи Каплан, Энтони Старр, Клеопатра Коулмэн, Люк Бьюзи, Александра Драгова, Джей Ринкон, Антон Коттас, Стефани Томас, Живко Михайлов
Описание:
У восьмилетнего Питера нет друзей, и к тому же один одноклассник постоянно его задирает. Однажды ночью мальчик начинает слышать звуки, а затем и голос из стены в своей комнате, но родители говорят, что это всего лишь его богатое воображение. Тем не менее голос за стеной не унимается и сначала рассказывает Питеру, как проучить школьного хулигана, а затем — что его родители скрывают мрачные тайны.
Возраст: 18+ (зрителям, достигшим 18 лет. запрещено для детей)
Рейтинг MPAA: R (лицам до 17 лет обязательно присутствие взрослого)
Продолжительность: 01:28:04
Качество видео: WEB-DL
Перевод: Многоголосый любительский (AlphaProject)
Язык озвучки: Русский, Английский
Субтитры: английские (Full, SDH)
Видео: HEVC/H.265, 3824x1596, 24.0 Mbps
Аудио 1: AC3, 2 ch, 192 Кbps | Русский MVO, AlphaProject
Аудио 2: E-AC3, 6 ch, 640 Кbps | Английский

MediaInfo:

Полное имя                               : Cobweb.2023.2160p.WEB-DL.HDR.H.265.s.mkv
Формат : Matroska
Версия формата : Version 4
Размер файла : 15,6 Гбайт
Продолжительность : 1 ч. 28 м.
Общий поток : 25,4 Мбит/сек
Частота кадров : 23,976 кадра/сек
Название фильма : Cobweb.2023
Программа кодирования : XviD4PSP 8.0.77
Библиотека кодирования : Lavf58.20.100
ErrorDetectionType : Per level 1
ENCODING_INFO : MATROSKA,WEBM > MKV Пользовательский
Видео
Идентификатор : 1
Формат : HEVC
Формат/Информация : High Efficiency Video Coding
Профиль формата : Main 10@L5@High
HDR format : SMPTE ST 2094 App 4, Version 1, HDR10+ Profile B compatible
Идентификатор кодека : V_MPEGH/ISO/HEVC
Продолжительность : 1 ч. 28 м.
Битрейт : 24,0 Мбит/сек
Ширина : 3 824 пикселя
Высота : 1 596 пикселей
Соотношение сторон : 2,40:1
Режим частоты кадров : Постоянный
Частота кадров : 23,976 (24000/1001) кадра/сек
Цветовое пространство : YUV
Субдискретизация насыщенности : 4:2:0 (Type 2)
Битовая глубина : 10 бит
Бит/(Пиксели*Кадры) : 0.164
Размер потока : 14,8 Гбайт (95%)
Язык : English
Default : Да
Forced : Нет
Цветовой диапазон : Limited
Основные цвета : BT.2020
Характеристики трансфера : PQ
Коэффициенты матрицы : BT.2020 non-constant
Mastering display color primaries : BT.2020
Mastering display luminance : min: 0.0050 cd/m2, max: 1000 cd/m2
Maximum Content Light Level : 681 cd/m2
Maximum Frame-Average Light Level : 289 cd/m2
ENCODING_INFO : HEVC > COPY Безопасное
Аудио #1
Идентификатор : 2
Формат : AC-3
Формат/Информация : Audio Coding 3
Коммерческое название : Dolby Digital
Идентификатор кодека : A_AC3
Продолжительность : 1 ч. 28 м.
Вид битрейта : Постоянный
Битрейт : 192 Кбит/сек
Каналы : 2 канала
Channel layout : L R
Частота : 48,0 КГц
Частота кадров : 31,250 кадров/сек (1536 SPF)
Битовая глубина : 32 бит
Метод сжатия : С потерями
Размер потока : 121 Мбайт (1%)
Заголовок : MVO - AlphaProject
Язык : Russian
Service kind : Complete Main
Default : Да
Forced : Нет
ENCODING_INFO : AC3 > COPY Пересинхронизация
Аудио #2
Идентификатор : 3
Формат : E-AC-3
Формат/Информация : Enhanced AC-3
Коммерческое название : Dolby Digital Plus
Идентификатор кодека : A_EAC3
Продолжительность : 1 ч. 28 м.
Вид битрейта : Постоянный
Битрейт : 640 Кбит/сек
Каналы : 6 каналов
Channel layout : L R C LFE Ls Rs
Частота : 48,0 КГц
Частота кадров : 31,250 кадров/сек (1536 SPF)
Битовая глубина : 32 бит
Метод сжатия : С потерями
Размер потока : 403 Мбайт (3%)
Заголовок : Original
Язык : English
Service kind : Complete Main
Default : Нет
Forced : Нет
ENCODING_INFO : EAC3 > COPY Пересинхронизация
Текст #1
Идентификатор : 4
Формат : UTF-8
Идентификатор кодека : S_TEXT/UTF8
Идентификатор кодека/Информация : UTF-8 Plain Text
Заголовок : SDH
Язык : English
Default : Да
Forced : Нет
ENCODING_INFO : SUBRIP > COPY Быстрое
Текст #2
Идентификатор : 5
Формат : UTF-8
Идентификатор кодека : S_TEXT/UTF8
Идентификатор кодека/Информация : UTF-8 Plain Text
Язык : English
Default : Нет
Forced : Нет
ENCODING_INFO : SUBRIP > COPY Быстрое
Меню
00:00:00.000 : Studio Logo
00:00:40.980 : Scene 2
00:03:45.980 : Scene 3
00:10:00.980 : Scene 4
00:17:28.980 : Scene 5
00:21:28.980 : Scene 6
00:26:46.980 : Scene 7
00:34:48.980 : Scene 8
00:41:53.980 : Scene 9
00:50:46.980 : Scene 10
00:57:38.980 : Scene 11
01:06:26.980 : Scene 12
01:12:28.980 : Scene 13
01:18:22.980 : Scene 14
01:20:50.980 : Scene 15
01:22:57.980 : End Credits
Скриншоты:
Все одноименные релизы в КлубеВремя раздачи: 24/7 (круглосуточно) (минимум до появления первых 3-5 скачавших)
[Профиль] [ЛС]
Показать сообщения:    
Ответить на тему

Текущее время: 25-Фев 19:26

Часовой пояс: UTC ± 0



Вы не можете начинать темы
Вы не можете отвечать на сообщения
Вы не можете редактировать свои сообщения
Вы не можете удалять свои сообщения
Вы не можете голосовать в опросах
Вы не можете прикреплять файлы к сообщениям
Вы не можете скачивать файлы

[  Время выполнения: 0,043 сек  |  MySQL: 0,002 сек (6%) · 3 запр.  |  GZIP выкл  |  Память: 422,29 KB / 1,73 MB / 1,35 MB  |  Лимит: 8 10 13  ]