Город астероидов / Asteroid City (2023) BDRip [H.265/1080p-LQ] [10-bit]

Ответить на тему
 
Автор Сообщение

admin ®

Пол: Не указан

Стаж: 6 месяца 22 дня

Сообщений: 11520

Создавать темы 30-Янв-2024 17:22

[Цитировать]

Город астероидов / Asteroid City (2023) BDRip [H.265/1080p-LQ] - Производство: США, Германия / American Empirical Pictures, Focus Features, ...
Жанр: фантастика, мелодрама, комедия
Режиссер: Уэс Андерсон
Актеры: Джейсон Шварцман, Скарлетт Йоханссон, Том Хэнкс, Джеффри Райт, Тильда Суинтон, Эдвард Нортон, Брайан Крэнстон, Эдриан Броуди, Майкл Маггарт, Хоуп Дэвис
Описание: 1955 год, небольшой вымышленный городок, расположенный возле кратера, оставшегося после падения астероида тысячи лет назад. Каждый год в этом месте проводится собрание юных астрономов, в котором участвуют ученики, их семьи, учителя, а также военные. Очередной такой слёт резко прерывается событиями, способными изменить мир.
Рейтинг MPAA: PG-13 (детям до 13 лет просмотр нежелателен)
Релиз от: LORDKILL
Продолжительность: 01:44:59
Качество видео: BDRip 1080p
Перевод: Дублированный (HotVoice 41), многоголосый профессиональный (HDRezka Studio, Jaskier, TVShows), авторский (Ю. Сербин)
Язык озвучки: Русский, английский
Субтитры: Русские (forced, full), английские (full, SDH)
Видео: HEVC/H.265, 1920х1080, ~2759 Kbps
Аудио 1: AC3, 6 ch, 448 Kbps - Русский (DUB, HotVoice 41)
Аудио 2: AC3, 6 ch, 448 Kbps - Русский (MVO, HDRezka Studio)
Аудио 3: AC3, 6 ch, 384 Kbps - Русский (MVO, Jaskier)
Аудио 4: AC3, 6 ch, 384 Kbps - Русский (MVO, TVShows)
Аудио 5: AC3, 6 ch, 384 Kbps - Русский (AVO, Ю. Сербин)
Аудио 6: AC3, 6 ch, 448 Kbps - Английский

MediaInfo:

General
Unique ID : 251542255596453705007864685107957957920 (0xBD3D46B737ECD458F6E465D5ADC38520)
Complete name : E:\КИНО\ДЛЯ РАЗДАЧ\Город астероидов (2023).mkv
Format : Matroska
Format version : Version 4
File size : 3.86 GiB
Duration : 1 h 44 min
Overall bit rate : 5 259 kb/s
Frame rate : 23.976 FPS
Movie name : Asteroid City [2023.BDRip.1080p.HEVC.10bit]
Encoded date : 2023-08-18 10:27:38 UTC
Writing application : mkvmerge v78.0 ('Running') 64-bit
Writing library : libebml v1.4.4 + libmatroska v1.7.1
Cover : Yes
Attachments : cover.jpg / small_cover.jpg
Video
ID : 1
Format : HEVC
Format/Info : High Efficiency Video Coding
Format profile : Main 10@L4@Main
Codec ID : V_MPEGH/ISO/HEVC
Duration : 1 h 44 min
Bit rate : 2 759 kb/s
Width : 1 920 pixels
Height : 1 080 pixels
Display aspect ratio : 16:9
Frame rate mode : Constant
Frame rate : 23.976 (24000/1001) FPS
Color space : YUV
Chroma subsampling : 4:2:0
Bit depth : 10 bits
Bits/(Pixel*Frame) : 0.056
Stream size : 2.02 GiB (52%)
Default : Yes
Forced : No
Audio #1
ID : 2
Format : AC-3
Format/Info : Audio Coding 3
Commercial name : Dolby Digital
Codec ID : A_AC3
Duration : 1 h 44 min
Bit rate mode : Constant
Bit rate : 448 kb/s
Channel(s) : 6 channels
Channel layout : L R C LFE Ls Rs
Sampling rate : 48.0 kHz
Frame rate : 31.250 FPS (1536 SPF)
Compression mode : Lossy
Stream size : 336 MiB (9%)
Title : DUB (HotVoice 41)
Language : Russian
Service kind : Complete Main
Default : Yes
Forced : No
Audio #2
ID : 3
Format : AC-3
Format/Info : Audio Coding 3
Commercial name : Dolby Digital
Codec ID : A_AC3
Duration : 1 h 44 min
Bit rate mode : Constant
Bit rate : 448 kb/s
Channel(s) : 6 channels
Channel layout : L R C LFE Ls Rs
Sampling rate : 48.0 kHz
Frame rate : 31.250 FPS (1536 SPF)
Compression mode : Lossy
Stream size : 336 MiB (9%)
Title : MVO (HDRezka Studio)
Language : Russian
Service kind : Complete Main
Default : No
Forced : No
Audio #3
ID : 4
Format : AC-3
Format/Info : Audio Coding 3
Commercial name : Dolby Digital
Codec ID : A_AC3
Duration : 1 h 44 min
Bit rate mode : Constant
Bit rate : 384 kb/s
Channel(s) : 6 channels
Channel layout : L R C LFE Ls Rs
Sampling rate : 48.0 kHz
Frame rate : 31.250 FPS (1536 SPF)
Compression mode : Lossy
Stream size : 288 MiB (7%)
Title : MVO (Jaskier)
Language : Russian
Service kind : Complete Main
Default : No
Forced : No
Audio #4
ID : 5
Format : AC-3
Format/Info : Audio Coding 3
Commercial name : Dolby Digital
Codec ID : A_AC3
Duration : 1 h 44 min
Bit rate mode : Constant
Bit rate : 384 kb/s
Channel(s) : 6 channels
Channel layout : L R C LFE Ls Rs
Sampling rate : 48.0 kHz
Frame rate : 31.250 FPS (1536 SPF)
Compression mode : Lossy
Stream size : 288 MiB (7%)
Title : MVO (TVShows)
Language : Russian
Service kind : Complete Main
Default : No
Forced : No
Audio #5
ID : 6
Format : AC-3
Format/Info : Audio Coding 3
Commercial name : Dolby Digital
Codec ID : A_AC3
Duration : 1 h 44 min
Bit rate mode : Constant
Bit rate : 384 kb/s
Channel(s) : 6 channels
Channel layout : L R C LFE Ls Rs
Sampling rate : 48.0 kHz
Frame rate : 31.250 FPS (1536 SPF)
Compression mode : Lossy
Stream size : 288 MiB (7%)
Title : AVO (Сербин)
Language : Russian
Service kind : Complete Main
Default : No
Forced : No
Audio #6
ID : 7
Format : AC-3
Format/Info : Audio Coding 3
Commercial name : Dolby Digital
Codec ID : A_AC3
Duration : 1 h 44 min
Bit rate mode : Constant
Bit rate : 448 kb/s
Channel(s) : 6 channels
Channel layout : L R C LFE Ls Rs
Sampling rate : 48.0 kHz
Frame rate : 31.250 FPS (1536 SPF)
Compression mode : Lossy
Stream size : 336 MiB (9%)
Title : Original
Language : English
Service kind : Complete Main
Default : No
Forced : No
Text #1
ID : 8
Format : UTF-8
Codec ID : S_TEXT/UTF8
Codec ID/Info : UTF-8 Plain Text
Duration : 1 h 30 min
Bit rate : 6 b/s
Frame rate : 0.016 FPS
Count of elements : 86
Stream size : 4.36 KiB (0%)
Title : Forced
Language : Russian
Default : Yes
Forced : Yes
Text #2
ID : 9
Format : UTF-8
Codec ID : S_TEXT/UTF8
Codec ID/Info : UTF-8 Plain Text
Duration : 1 h 37 min
Bit rate : 138 b/s
Frame rate : 0.298 FPS
Count of elements : 1752
Stream size : 99.2 KiB (0%)
Title : Full (FOCS & CHACUN)
Language : Russian
Default : No
Forced : No
Text #3
ID : 10
Format : UTF-8
Codec ID : S_TEXT/UTF8
Codec ID/Info : UTF-8 Plain Text
Duration : 1 h 43 min
Bit rate : 83 b/s
Frame rate : 0.313 FPS
Count of elements : 1949
Stream size : 63.8 KiB (0%)
Title : Full
Language : English
Default : No
Forced : No
Text #4
ID : 11
Format : UTF-8
Codec ID : S_TEXT/UTF8
Codec ID/Info : UTF-8 Plain Text
Duration : 1 h 43 min
Bit rate : 89 b/s
Frame rate : 0.344 FPS
Count of elements : 2144
Stream size : 68.5 KiB (0%)
Title : SDH
Language : English
Default : No
Forced : No
Menu
00:00:00.000 : en:Chapter 01
00:05:01.676 : en:Chapter 02
00:09:55.553 : en:Chapter 03
00:12:40.259 : en:Chapter 04
00:23:25.695 : en:Chapter 05
00:25:44.960 : en:Chapter 06
00:30:06.221 : en:Chapter 07
00:33:42.145 : en:Chapter 08
00:39:54.809 : en:Chapter 09
00:46:26.033 : en:Chapter 10
00:54:39.609 : en:Chapter 11
00:57:29.654 : en:Chapter 12
01:07:21.120 : en:Chapter 13
01:12:12.870 : en:Chapter 14
01:15:25.145 : en:Chapter 15
01:22:13.094 : en:Chapter 16
01:25:48.852 : en:Chapter 17
01:29:39.707 : en:Chapter 18
01:33:45.661 : en:Chapter 19
01:37:51.282 : en:Chapter 20
Скриншоты:
Все одноименные релизы в КлубеВремя раздачи: 24/7 (минимум до появления первых 10 скачавших)
[Профиль] [ЛС]
Показать сообщения:    
Ответить на тему

Текущее время: 20-Апр 18:58

Часовой пояс: UTC ± 0



Вы не можете начинать темы
Вы не можете отвечать на сообщения
Вы не можете редактировать свои сообщения
Вы не можете удалять свои сообщения
Вы не можете голосовать в опросах
Вы не можете прикреплять файлы к сообщениям
Вы не можете скачивать файлы

[  Время выполнения: 0,047 сек  |  MySQL: 0,002 сек (5%) · 3 запр.  |  GZIP выкл  |  Память: 422,29 KB / 1,75 MB / 1,37 MB  |  Лимит: 15 15 14  ]