Сердце Стоун / Heart of Stone (2023) WEB-DL [H.265/2160p] [4K, HDR10, Dolby Vision, Profile 8, 10-bit] [MVO]

Ответить на тему
 
Автор Сообщение

admin ®

Пол: Не указан

Стаж: 6 месяца 22 дня

Сообщений: 11520

Создавать темы 30-Янв-2024 17:21

[Цитировать]

Сердце Стоун / Heart of Stone (2023) WEB-DL [H.265/2160p] - Производство: США / Dune Films, Mockingbird Pictures, Netflix, Pilot Wave Motion Pictures, Skydance Productions
Жанр: боевик, криминал
Режиссер: Том Харпер
Продюсер: Бонни Кертис, Дэвид Эллисон, Галь Гадот
Актеры: Галь Гадот, Лу Сыцзин, Джейми Дорнан, Пол Рэди, Энцо Чиленти, Joe Reisig, Лука Фьяменги, Алиа Бхатт, Маттиас Швайгхёфер, Томас Арнольд
Описание:
Оперативница секретного миротворческого агентства Рэйчел Стоун должна помешать хакеру украсть их самый ценный и опасный актив — оружие под кодовым названием «Сердце».
Рейтинг MPAA: PG-13 (детям до 13 лет просмотр нежелателен)
Релиз от: Theseus
Продолжительность: 02:05:26
Качество видео: WEB-DL
Перевод: Многоголосый профессиональный (HDRezka Studio)
Язык озвучки: русский, английский
Субтитры: русские (forced, full), английские (forced, full, SDH)
Видео: HEVC/H.265, 3840x2160, 19,2 Mbps
Аудио 1: AC3, 6 ch, 448 Kbps - русский
Аудио 2: E-AC3 JOC, 6 ch, 768 Kbps - английский

MediaInfo:

General
Unique ID : 286101853514500314064630177708598799260 (0xD73D367261B8F6A72136BFA7EFA6AB9C)
Complete name : Heart.of.Stone.(2023).WEB-DL.2160p.HDR.DV.Theseus.mkv
Format : Matroska
Format version : Version 4
File size : 17.8 GiB
Duration : 2 h 5 min
Overall bit rate : 20.4 Mb/s
Movie name : Heart of Stone (2023) Theseus
Encoded date : UTC 2023-08-18 14:12:52
Writing application : mkvmerge v78.0 ('Running') 64-bit
Writing library : libebml v1.4.4 + libmatroska v1.7.1
Video
ID : 1
Format : HEVC
Format/Info : High Efficiency Video Coding
Format profile : Main 10@L5@Main
HDR format : Dolby Vision, Version 1.0, dvhe.08.06, BL+RPU, HDR10 compatible / SMPTE ST 2086, HDR10 compatible
Codec ID : V_MPEGH/ISO/HEVC
Duration : 2 h 5 min
Bit rate : 19.2 Mb/s
Width : 3 840 pixels
Height : 2 160 pixels
Display aspect ratio : 16:9
Frame rate mode : Constant
Frame rate : 24.000 FPS
Color space : YUV
Chroma subsampling : 4:2:0 (Type 2)
Bit depth : 10 bits
Bits/(Pixel*Frame) : 0.096
Stream size : 16.8 GiB (94%)
Language : English
Default : Yes
Forced : No
Color range : Limited
Color primaries : BT.2020
Transfer characteristics : PQ
Matrix coefficients : BT.2020 non-constant
Mastering display color primaries : Display P3
Mastering display luminance : min: 0.0001 cd/m2, max: 1000 cd/m2
Maximum Content Light Level : 2474 cd/m2
Maximum Frame-Average Light Level : 781 cd/m2
Audio #1
ID : 2
Format : AC-3
Format/Info : Audio Coding 3
Commercial name : Dolby Digital
Codec ID : A_AC3
Duration : 2 h 2 min
Bit rate mode : Constant
Bit rate : 448 kb/s
Channel(s) : 6 channels
Channel layout : L R C LFE Ls Rs
Sampling rate : 48.0 kHz
Frame rate : 31.250 FPS (1536 SPF)
Compression mode : Lossy
Stream size : 394 MiB (2%)
Title : MVO (HDRezka Studio)
Language : Russian
Service kind : Complete Main
Default : Yes
Forced : No
Audio #2
ID : 3
Format : E-AC-3 JOC
Format/Info : Enhanced AC-3 with Joint Object Coding
Commercial name : Dolby Digital Plus with Dolby Atmos
Codec ID : A_EAC3
Duration : 2 h 2 min
Bit rate mode : Constant
Bit rate : 768 kb/s
Channel(s) : 6 channels
Channel layout : L R C LFE Ls Rs
Sampling rate : 48.0 kHz
Frame rate : 31.250 FPS (1536 SPF)
Compression mode : Lossy
Stream size : 675 MiB (4%)
Language : English
Service kind : Complete Main
Default : No
Forced : No
Complexity index : 16
Number of dynamic objects : 15
Bed channel count : 1 channel
Bed channel configuration : LFE
Text #1
ID : 4
Format : UTF-8
Codec ID : S_TEXT/UTF8
Codec ID/Info : UTF-8 Plain Text
Duration : 1 h 49 min
Bit rate : 2 b/s
Count of elements : 67
Stream size : 2.37 KiB (0%)
Title : Forced
Language : Russian
Default : Yes
Forced : No
Text #2
ID : 5
Format : UTF-8
Codec ID : S_TEXT/UTF8
Codec ID/Info : UTF-8 Plain Text
Duration : 2 h 2 min
Bit rate : 62 b/s
Count of elements : 1180
Stream size : 55.7 KiB (0%)
Title : Full
Language : Russian
Default : No
Forced : No
Text #3
ID : 6
Format : UTF-8
Codec ID : S_TEXT/UTF8
Codec ID/Info : UTF-8 Plain Text
Duration : 1 min 36 s
Bit rate : 10 b/s
Count of elements : 5
Stream size : 121 Bytes (0%)
Title : Forced
Language : English
Default : No
Forced : No
Text #4
ID : 7
Format : UTF-8
Codec ID : S_TEXT/UTF8
Codec ID/Info : UTF-8 Plain Text
Duration : 1 h 53 min
Bit rate : 50 b/s
Count of elements : 1258
Stream size : 42.2 KiB (0%)
Title : Full
Language : English
Default : No
Forced : No
Text #5
ID : 8
Format : UTF-8
Codec ID : S_TEXT/UTF8
Codec ID/Info : UTF-8 Plain Text
Duration : 2 h 2 min
Bit rate : 55 b/s
Count of elements : 1588
Stream size : 50.0 KiB (0%)
Title : SDH
Language : English
Default : No
Forced : No
Скриншоты:
Все одноименные релизы в КлубеВремя раздачи: 24/7 (мультитрекерная раздача)
[Профиль] [ЛС]
Показать сообщения:    
Ответить на тему

Текущее время: 20-Апр 19:31

Часовой пояс: UTC ± 0



Вы не можете начинать темы
Вы не можете отвечать на сообщения
Вы не можете редактировать свои сообщения
Вы не можете удалять свои сообщения
Вы не можете голосовать в опросах
Вы не можете прикреплять файлы к сообщениям
Вы не можете скачивать файлы

[  Время выполнения: 0,040 сек  |  MySQL: 0,004 сек (9%) · 3 запр.  |  GZIP выкл  |  Память: 422,29 KB / 1,75 MB / 1,37 MB  |  Лимит: 8 6 8  ]