Наёмный убийца / Salsu (The Assassin) (2023) BDRip [H.264/1080p]

Ответить на тему
 
Автор Сообщение

admin ®

Пол: Не указан

Стаж: 5 месяца

Сообщений: 10110

Создавать темы 30-Янв-2024 17:21

[Цитировать]

Наёмный убийца / Salsu (The Assassin) (2023) BDRip [H.264/1080p]- Производство: Корея Южная / JNC Media GroupJoy n Cinema
Жанр: боевик, приключения, история
Режиссер: Квак Чон-док
Актеры: Щин Хён-джун, Ли Мун-щик, Ким Мин-гён, Хон Ын-ги, Ли Джон-мин, Пак Чэ-хун, Ли Ро-ун, Ким Бён-чхун, Чон Бом-джун, Ли Хён-голь
Описание:
После нескольких войн Чосон находится в хаосе, законы перестали служить людям, а амбиции правителей зашкаливают. Они нанимают убийц, которые уничтожали тех, кто впал в немилость. Ли Нан был лучшим наёмным убийцей Чосона. Откуда он и на кого работает - никто не знает, но он всегда выполняет работу безукоризненно. Однажды Ли Нан вынужден обратиться к лекарю: его мучают боли в сердце. Вскоре опускает меч и скрывается там, где его никто не узнает. Но от судьбы не скроешься.
Возраст: 18+ (Зрителям, достигшим 18 лет)
Продолжительность: 01:40:37
Качество видео: BDRip (1080p)
Перевод: Дублированный (Akimbo Production)
Язык озвучки: Русский, корейский
Субтитры: Английские
Видео: AVC/H.264, 1920x1038, ~10,9 Mbps
Аудио #1: E-AC3, 6 ch, 448 Кбит/с - Русский
Аудио #2: E-AC3, 6 ch, 1024 Кбит/с - Корейский

MediaInfo:

Общее
Уникальный идентификатор : 332970904533639055106030531791081547409 (0xFA7FDD129A4740D9D3B658309C8DA691)
Полное имя : D:\NNM\Наёмный убийца\The.Assassin.2023.BDRip.1080p-AsiaOne-Delia.mkv
Формат : Matroska
Версия формата : Version 4
Размер файла : 8,70 Гбайт
Продолжительность : 1 ч. 40 м.
Общий поток : 12,4 Мбит/сек
Дата кодирования : UTC 2023-08-12 06:26:28
Программа кодирования : mkvmerge v78.0 ('Running') 64-bit
Библиотека кодирования : libebml v1.4.4 + libmatroska v1.7.1
Обложка : Yes
Attachments : cover.png
Видео
Идентификатор : 1
Формат : AVC
Формат/Информация : Advanced Video Codec
Профиль формата : High@L4.1
Настройки формата : CABAC / 4 Ref Frames
Параметр CABAC формата : Да
Параметр RefFrames формата : 4 кадра
Идентификатор кодека : V_MPEG4/ISO/AVC
Продолжительность : 1 ч. 40 м.
Битрейт : 10,9 Мбит/сек
Ширина : 1 920 пикселей
Высота : 1 038 пикселей
Соотношение сторон : 1,85:1
Режим частоты кадров : Постоянный
Частота кадров : 23,976 (24000/1001) кадра/сек
Цветовое пространство : YUV
Субдискретизация насыщенности : 4:2:0
Битовая глубина : 8 бит
Тип развёртки : Прогрессивная
Бит/(Пиксели*Кадры) : 0.228
Размер потока : 7,66 Гбайт (88%)
Библиотека кодирования : x264 core 164 r3107+47 14e7f5d tMod@devel [(8 & 10)-bit@all X86_64]
Настройки программы : cabac=1 / ref=4 / deblock=1:-3:-3 / analyse=0x3:0x133 / me=umh / subme=11 / psy=1 / fade_compensate=0.00 / psy_rd=0.90:0.00 / mixed_ref=1 / me_range=32 / chroma_me=1 / trellis=2 / 8x8dct=1 / cqm=0 / deadzone=21,11 / fast_pskip=0 / chroma_qp_offset=-2 / threads=24 / lookahead_threads=6 / sliced_threads=0 / nr=0 / decimate=0 / interlaced=0 / bluray_compat=0 / constrained_intra=0 / fgo=0 / bframes=10 / b_pyramid=2 / b_adapt=2 / b_bias=0 / direct=3 / weightb=1 / open_gop=0 / weightp=2 / keyint=250 / keyint_min=23 / scenecut=40 / intra_refresh=0 / rc=crf / mbtree=0 / crf=17.0000 / qcomp=0.65 / qpmin=0:0:0 / qpmax=69:69:69 / qpstep=4 / ip_ratio=1.30 / pb_ratio=1.20 / aq=3:0.75 / aq-sensitivity=10.00 / aq-factor=1.00:1.00:1.00:1.00 / aq2=0 / aq3=0
Язык : English
Default : Да
Forced : Нет
Цветовой диапазон : Limited
Основные цвета : BT.709
Характеристики трансфера : BT.709
Коэффициенты матрицы : BT.709
Аудио #1
Идентификатор : 2
Формат : E-AC-3
Формат/Информация : Enhanced AC-3
Коммерческое название : Dolby Digital Plus
Идентификатор кодека : A_EAC3
Продолжительность : 1 ч. 40 м.
Вид битрейта : Постоянный
Битрейт : 448 Кбит/сек
Каналы : 6 каналов
Channel layout : L R C LFE Ls Rs
Частота : 48,0 КГц
Частота кадров : 31,250 кадров/сек (1536 SPF)
Метод сжатия : С потерями
Размер потока : 322 Мбайт (4%)
Заголовок : Russian
Язык : Russian
Service kind : Complete Main
Default : Да
Forced : Нет
Аудио #2
Идентификатор : 3
Формат : E-AC-3
Формат/Информация : Enhanced AC-3
Коммерческое название : Dolby Digital Plus
Идентификатор кодека : A_EAC3
Продолжительность : 1 ч. 40 м.
Вид битрейта : Постоянный
Битрейт : 1 024 Кбит/сек
Каналы : 6 каналов
Channel layout : L R C LFE Ls Rs
Частота : 48,0 КГц
Частота кадров : 31,250 кадров/сек (1536 SPF)
Метод сжатия : С потерями
Размер потока : 737 Мбайт (8%)
Заголовок : Korean
Язык : Korean
Service kind : Complete Main
Default : Нет
Forced : Нет
Текст
Идентификатор : 4
Формат : UTF-8
Идентификатор кодека : S_TEXT/UTF8
Идентификатор кодека/Информация : UTF-8 Plain Text
Продолжительность : 1 ч. 36 м.
Битрейт : 31 бит/сек
Count of elements : 837
Размер потока : 22,0 Кбайт (0%)
Заголовок : English, Netflix
Язык : English
Default : Нет
Forced : Нет
Меню
00:00:00.000 : :Chapter 01
00:06:42.277 : :Chapter 02
00:15:56.914 : :Chapter 03
00:21:08.684 : :Chapter 04
00:26:41.850 : :Chapter 05
00:33:01.396 : :Chapter 06
00:41:01.084 : :Chapter 07
00:48:42.336 : :Chapter 08
00:57:11.011 : :Chapter 09
01:01:48.496 : :Chapter 10
01:07:21.329 : :Chapter 11
01:14:09.278 : :Chapter 12
01:20:49.928 : :Chapter 13
01:27:16.982 : :Chapter 14
01:33:40.657 : :Chapter 15
01:37:45.818 : :Chapter 16
Скриншоты: Все одноименные релизы в КлубеВремя раздачи: 24/7 (до 10-ти скачавших)
[Профиль] [ЛС]
Показать сообщения:    
Ответить на тему

Текущее время: 28-Фев 22:54

Часовой пояс: UTC ± 0



Вы не можете начинать темы
Вы не можете отвечать на сообщения
Вы не можете редактировать свои сообщения
Вы не можете удалять свои сообщения
Вы не можете голосовать в опросах
Вы не можете прикреплять файлы к сообщениям
Вы не можете скачивать файлы

[  Время выполнения: 0,039 сек  |  MySQL: 0,003 сек (8%) · 3 запр.  |  GZIP выкл  |  Память: 422,29 KB / 1,75 MB / 1,37 MB  |  Лимит: 9 9 11  ]