Наёмный убийца / Salsu (The Assassin) (2023) BDRip

Ответить на тему
 
Автор Сообщение

admin ®

Пол: Не указан

Стаж: 4 месяца 27 дня

Сообщений: 10110

Создавать темы 30-Янв-2024 17:21

[Цитировать]

Наёмный убийца / Salsu (The Assassin) (2023) BDRip- Производство: Корея Южная / JNC Media GroupJoy n Cinema
Жанр: боевик, приключения, история
Режиссер: Квак Чон-док
Актеры: Щин Хён-джун, Ли Мун-щик, Ким Мин-гён, Хон Ын-ги, Ли Джон-мин, Пак Чэ-хун, Ли Ро-ун, Ким Бён-чхун, Чон Бом-джун, Ли Хён-голь
Описание:
После нескольких войн Чосон находится в хаосе, законы перестали служить людям, а амбиции правителей зашкаливают. Они нанимают убийц, которые уничтожали тех, кто впал в немилость. Ли Нан был лучшим наёмным убийцей Чосона. Откуда он и на кого работает - никто не знает, но он всегда выполняет работу безукоризненно. Однажды Ли Нан вынужден обратиться к лекарю: его мучают боли в сердце. Вскоре опускает меч и скрывается там, где его никто не узнает. Но от судьбы не скроешься.
Возраст: 18+ (Зрителям, достигшим 18 лет)
Продолжительность: 01:40:37
Качество видео: BDRip
Перевод: Дублированный (Akimbo Production)
Язык озвучки: Русский
Субтитры: Отсутствуют
Видео: XviD, 704x384, ~1617 Kbps
Аудио: AC-3, 6 ch, 448 Kbps

MediaInfo:

Общее
Полное имя : D:\NNM\Наёмный убийца\The.Assassin.2023.D.1.46Gb.BDRip.[toxics].avi
Формат : AVI
Формат/Информация : Audio Video Interleave
Размер файла : 1,46 Гбайт
Продолжительность : 1 ч. 40 м.
Общий поток : 2 074 Кбит/сек
Программа кодирования : VirtualDubMod 1.5.10.3 | www.virtualdub-fr.org || (build 2550/release)
Библиотека кодирования : VirtualDubMod build 2550/release
Видео
Идентификатор : 0
Формат : MPEG-4 Visual
Профиль формата : Advanced Simple@L5
Настройки формата : BVOP1 / Custom Matrix
Параметр BVOP формата : 1
Параметр QPel формата : Нет
Параметр GMC формата : Без точки перехода
Параметр матрицы формата : Выборочная
Идентификатор кодека : XVID
Идентификатор кодека/Подсказка : XviD
Продолжительность : 1 ч. 40 м.
Битрейт : 1 617 Кбит/сек
Ширина : 704 пикселя
Высота : 384 пикселя
Соотношение сторон : 1,85:1
Частота кадров : 23,976 (24000/1001) кадра/сек
Частота кадров в оригинале : 23,976 (23976/1000) кадра/сек
Цветовое пространство : YUV
Субдискретизация насыщенности : 4:2:0
Битовая глубина : 8 бит
Тип развёртки : Прогрессивная
Метод сжатия : С потерями
Бит/(Пиксели*Кадры) : 0.249
Размер потока : 1,14 Гбайт (78%)
Библиотека кодирования : XviD 73
Аудио
Идентификатор : 1
Формат : AC-3
Формат/Информация : Audio Coding 3
Коммерческое название : Dolby Digital
Идентификатор кодека : 2000
Продолжительность : 1 ч. 40 м.
Вид битрейта : Постоянный
Битрейт : 448 Кбит/сек
Каналы : 6 каналов
Channel layout : L R C LFE Ls Rs
Частота : 48,0 КГц
Частота кадров : 31,250 кадров/сек (1536 SPF)
Метод сжатия : С потерями
Размер потока : 322 Мбайт (22%)
Выравнивание : Разделение по промежуткам
Продолжительность промежутка : 42 мс. (1,00 видеокадр)
Время предзагрузки промежутка : 500 мс.
Service kind : Complete Main
Скриншоты: Все одноименные релизы в КлубеВремя раздачи: 24/7 (до 10-ти скачавших)
[Профиль] [ЛС]
Показать сообщения:    
Ответить на тему

Текущее время: 25-Фев 19:18

Часовой пояс: UTC ± 0



Вы не можете начинать темы
Вы не можете отвечать на сообщения
Вы не можете редактировать свои сообщения
Вы не можете удалять свои сообщения
Вы не можете голосовать в опросах
Вы не можете прикреплять файлы к сообщениям
Вы не можете скачивать файлы

[  Время выполнения: 0,041 сек  |  MySQL: 0,003 сек (8%) · 3 запр.  |  GZIP выкл  |  Память: 422,29 KB / 1,74 MB / 1,34 MB  |  Лимит: 14 15 16  ]