Не буди во мне киллера / Les complices / Killing Blues (2023) WEB-DL [H.264/1080p]

Ответить на тему
 
Автор Сообщение

admin ®

Пол: Не указан

Стаж: 4 месяца 27 дня

Сообщений: 10110

Создавать темы 30-Янв-2024 17:21

[Цитировать]

Не буди во мне киллера / Les complices / Killing Blues (2023) WEB-DL [H.264/1080p]- Производство: Франция, Бельгия / Firelight, Artémis Productions, SND Groupe M6
Жанр: комедия
Режиссер: Сесилия Руа
Актеры: Франсуа Дамиенс, Уилльям Лебхил, Лора Фельпен, Ванесса Паради, Брюно Подалидес, Люсиль де ла Морена, Алисия Хава, Жантиль Каме
Описание:
Беспощадный киллер во время одного из заданий внезапно теряет сознание. И теперь его мутит от одного вида крови. Рабочий график, расписанный на год вперед, летит ко всем чертям. Босс и жена в ярости — мужчина должен зарабатывать. На помощь внезапно приходят соседи. Им в колл-центр как раз требуются добрые и отзывчивые люди, способные убедить любого клиента.
Возраст: 18+ (Зрителям, достигшим 18 лет)
Продолжительность: 01:37:29
Качество видео: WEB-DL (1080p)
Перевод: Дублированный (Pride Production)
Язык озвучки: Русский, Французский
Субтитры: Отсутствуют
Видео: AVC/H.264, 1920x800, ~7217 Kbps
Аудио #1: AC3, 6 ch, 384 Kbps - Русский
Аудио #2: E-AC3, 6 ch, 640 Kbps - Французский

MediaInfo:

Общее
Уникальный идентификатор : 286957776287065088905330612124725101132 (0xD7E20EB297A52E02D750320B0D31424C)
Полное имя : D:\NNM\Не буди во мне киллера\Les.Complices.2023.WEB-DL.1080p.seleZen.mkv
Формат : Matroska
Версия формата : Version 4
Размер файла : 5,61 Гбайт
Продолжительность : 1 ч. 37 м.
Режим общего битрейта : Постоянный
Общий поток : 8 243 Кбит/сек
Название фильма : Les Complices 2023 from seleZen
Дата кодирования : UTC 2023-08-11 22:23:31
Программа кодирования : mkvmerge v77.0 ('Elemental') 64-bit
Библиотека кодирования : libebml v1.4.4 + libmatroska v1.7.1
Видео
Идентификатор : 1
Формат : AVC
Формат/Информация : Advanced Video Codec
Профиль формата : High@L4
Настройки формата : CABAC / 4 Ref Frames
Параметр CABAC формата : Да
Параметр RefFrames формата : 4 кадра
Идентификатор кодека : V_MPEG4/ISO/AVC
Продолжительность : 1 ч. 37 м.
Вид битрейта : Постоянный
Битрейт : 7 217 Кбит/сек
Номинальный битрейт : 10 000 Кбит/сек
Ширина : 1 920 пикселей
Высота : 800 пикселей
Соотношение сторон : 2,40:1
Режим частоты кадров : Постоянный
Частота кадров : 24,000 кадра/сек
Цветовое пространство : YUV
Субдискретизация насыщенности : 4:2:0
Битовая глубина : 8 бит
Тип развёртки : Прогрессивная
Бит/(Пиксели*Кадры) : 0.196
Размер потока : 4,91 Гбайт (88%)
Язык : French
Default : Да
Forced : Нет
Цветовой диапазон : Limited
Основные цвета : BT.709
Характеристики трансфера : BT.709
Коэффициенты матрицы : BT.709
Аудио #1
Идентификатор : 2
Формат : AC-3
Формат/Информация : Audio Coding 3
Коммерческое название : Dolby Digital
Идентификатор кодека : A_AC3
Продолжительность : 1 ч. 37 м.
Вид битрейта : Постоянный
Битрейт : 384 Кбит/сек
Каналы : 6 каналов
Channel layout : L R C LFE Ls Rs
Частота : 48,0 КГц
Частота кадров : 31,250 кадров/сек (1536 SPF)
Метод сжатия : С потерями
Размер потока : 268 Мбайт (5%)
Заголовок : Dub
Язык : Russian
Service kind : Complete Main
Default : Да
Forced : Нет
Аудио #2
Идентификатор : 3
Формат : E-AC-3
Формат/Информация : Enhanced AC-3
Коммерческое название : Dolby Digital Plus
Идентификатор кодека : A_EAC3
Продолжительность : 1 ч. 37 м.
Вид битрейта : Постоянный
Битрейт : 640 Кбит/сек
Каналы : 6 каналов
Channel layout : L R C LFE Ls Rs
Частота : 48,0 КГц
Частота кадров : 31,250 кадров/сек (1536 SPF)
Метод сжатия : С потерями
Размер потока : 446 Мбайт (8%)
Заголовок : Original
Язык : French
Service kind : Complete Main
Default : Нет
Forced : Нет
Скриншоты:
Все одноименные релизы в КлубеВремя раздачи: 24/7 ( до 10-ти скачавших)
[Профиль] [ЛС]
Показать сообщения:    
Ответить на тему

Текущее время: 25-Фев 20:53

Часовой пояс: UTC ± 0



Вы не можете начинать темы
Вы не можете отвечать на сообщения
Вы не можете редактировать свои сообщения
Вы не можете удалять свои сообщения
Вы не можете голосовать в опросах
Вы не можете прикреплять файлы к сообщениям
Вы не можете скачивать файлы

[  Время выполнения: 0,041 сек  |  MySQL: 0,004 сек (10%) · 3 запр.  |  GZIP выкл  |  Память: 422,29 KB / 1,74 MB / 1,34 MB  |  Лимит: 7 10 11  ]