Без обид / No Hard Feelings (2023) WEB-DLRip [MVO]

Ответить на тему
 
Автор Сообщение

admin ®

Пол: Не указан

Стаж: 4 месяца 27 дня

Сообщений: 10110

Создавать темы 30-Янв-2024 17:21

[Цитировать]

Без обид / No Hard Feelings (2023) WEB-DLRip - Производство: США / Excellent Cadaver, Odenkirk Provissiero Entertainment, Sony Pictures Entertainment (SPE)
Жанр: комедия, мелодрама
Режиссер: Джин Ступницки
Актеры: Дженнифер Лоуренс, Эндрю Барт Фельдман, Лаура Бенанти, Мэттью Бродерик, Натали Моралес, Скотт Макартур, Эбон Мосс-Бакрак, Кайл Муни, Хасан Минхадж, Jordan Mendoza
Описание:
Мэдди 32 года, она всю жизнь прожила в Монтоке — курортном местечке недалеко от Нью-Йорка. Богачи скупают тут недвижимость, налоги постоянно растут, а девушка пытается сохранить доставшийся в наследство от матери дом, поэтому оказывается по уши в долгах. Лишившись автомобиля и возможности таксовать, она в обмен на машину решает помочь богатеньким родителям, которые волнуются, что их 18-летнему сыну скоро в колледж, а он всё никак не вылезет из своей раковины. Задача Мэдди — лишить парня девственности, но сделать это оказывается не так-то просто.
Возраст: 18+ (зрителям, достигшим 18 лет. запрещено для детей)
Рейтинг MPAA: R (лицам до 17 лет обязательно присутствие взрослого)
Продолжительность: 01:43:50
Качество видео: WEB-DLRip
Перевод: Многоголосый профессиональный (TVShows)
Язык озвучки: Русский
Субтитры: Русские, английские
Видео: XviD, 720x384, ~1637 Kbps
Аудио: AC-3, 6 ch, 384 Kbps

MediaInfo:

Общее
Полное имя : D:\NNM\ Без обид\No.Hard.Feelings.2023.WEB-DLRip.seleZen\No.Hard.Feelings.2023.WEB-DLRip.seleZen.avi
Формат : AVI
Формат/Информация : Audio Video Interleave
Размер файла : 1,47 Гбайт
Продолжительность : 1 ч. 43 м.
Общий поток : 2 028 Кбит/сек
Программа кодирования : VirtualDubModRus 1.5.10.2 (build 2542/release)
Библиотека кодирования : VirtualDubMod build 2542/release
Видео
Идентификатор : 0
Формат : MPEG-4 Visual
Профиль формата : Advanced Simple@L5
Настройки формата : BVOP1 / Custom Matrix
Параметр BVOP формата : 1
Параметр QPel формата : Нет
Параметр GMC формата : Без точки перехода
Параметр матрицы формата : Выборочная
Идентификатор кодека : XVID
Идентификатор кодека/Подсказка : XviD
Продолжительность : 1 ч. 43 м.
Битрейт : 1 637 Кбит/сек
Ширина : 720 пикселей
Высота : 384 пикселя
Соотношение сторон : 1,85:1
Частота кадров : 23,976 (24000/1001) кадра/сек
Цветовое пространство : YUV
Субдискретизация насыщенности : 4:2:0
Битовая глубина : 8 бит
Тип развёртки : Прогрессивная
Метод сжатия : С потерями
Бит/(Пиксели*Кадры) : 0.247
Размер потока : 1,19 Гбайт (81%)
Библиотека кодирования : XviD 69
Аудио
Идентификатор : 1
Формат : AC-3
Формат/Информация : Audio Coding 3
Коммерческое название : Dolby Digital
Идентификатор кодека : 2000
Продолжительность : 1 ч. 43 м.
Вид битрейта : Постоянный
Битрейт : 384 Кбит/сек
Каналы : 6 каналов
Channel layout : L R C LFE Ls Rs
Частота : 48,0 КГц
Частота кадров : 31,250 кадров/сек (1536 SPF)
Битовая глубина : 16 бит
Метод сжатия : С потерями
Размер потока : 285 Мбайт (19%)
Выравнивание : Разделение по промежуткам
Продолжительность промежутка : 80 мс. (1,92 видеокадра)
Время предзагрузки промежутка : 560 мс.
Service kind : Complete Main
Скриншоты:
Все одноименные релизы в КлубеВремя раздачи: 24/7 (до 10- ти скачавших)
[Профиль] [ЛС]
Показать сообщения:    
Ответить на тему

Текущее время: 25-Фев 21:23

Часовой пояс: UTC ± 0



Вы не можете начинать темы
Вы не можете отвечать на сообщения
Вы не можете редактировать свои сообщения
Вы не можете удалять свои сообщения
Вы не можете голосовать в опросах
Вы не можете прикреплять файлы к сообщениям
Вы не можете скачивать файлы

[  Время выполнения: 0,040 сек  |  MySQL: 0,003 сек (7%) · 3 запр.  |  GZIP выкл  |  Память: 422,29 KB / 1,72 MB / 1,32 MB  |  Лимит: 18 16 14  ]