В паутине страха / Cobweb (2023) WEB-DL [H.264/1080p] [MVO]

Ответить на тему
 
Автор Сообщение

admin ®

Пол: Не указан

Стаж: 5 месяца 1 день

Сообщений: 10110

Создавать темы 30-Янв-2024 17:21

[Цитировать]

В паутине страха / Cobweb (2023) WEB-DL [H.264/1080p] - Производство: США / Lionsgate, Media Capital Technologies, Point Grey Pictures
Жанр: ужасы
Режиссер: Сэмюэл Бодин
Актеры: Вуди Норман, Лиззи Каплан, Энтони Старр, Клеопатра Коулмэн, Люк Бьюзи, Александра Драгова, Джей Ринкон, Антон Коттас, Стефани Томас, Живко Михайлов
Описание:
У восьмилетнего Питера нет друзей, и к тому же один одноклассник постоянно его задирает. Однажды ночью мальчик начинает слышать звуки, а затем и голос из стены в своей комнате, но родители говорят, что это всего лишь его богатое воображение. Тем не менее голос за стеной не унимается и сначала рассказывает Питеру, как проучить школьного хулигана, а затем — что его родители скрывают мрачные тайны.
Возраст: 18+ (зрителям, достигшим 18 лет. запрещено для детей)
Рейтинг MPAA: R (лицам до 17 лет обязательно присутствие взрослого)
Продолжительность: 01:28:04
Качество видео: WEB-DL (1080p)
Перевод: Многоголосый профессиональный (Jaskier)
Язык озвучки: Русский, английский
Субтитры: Английские (SDH)
Видео: AVC/H.264, 1916x800, ~6757 Кbps
Аудио 1: AC3, 6 ch, 384 Кbps | Русский (Jaskier)
Аудио 2: AC3, 6 ch, 640 Кbps | Английский (Оригинал)

MediaInfo:

Общее
Уникальный идентификатор : 217545351946197613611568068542309477266 (0xA3A9B5F434D7BBB752CFC5E0E63A2B92)
Полное имя : D:\NNM\В паутине страха\Cobweb.2023.1080p.WEB-DL_от New-Team_JNS82.mkv
Формат : Matroska
Версия формата : Version 4
Размер файла : 4,79 Гбайт
Продолжительность : 1 ч. 28 м.
Общий поток : 7 783 Кбит/сек
Название фильма : Cobweb.2023.1080p.WEB-DL_от New-Team_JNS82
Дата кодирования : UTC 2023-08-15 09:33:00
Программа кодирования : mkvmerge v59.0.0 ('Shining Star') 64-bit
Библиотека кодирования : libebml v1.4.2 + libmatroska v1.6.4
Видео
Идентификатор : 1
Формат : AVC
Формат/Информация : Advanced Video Codec
Профиль формата : High@L4
Настройки формата : CABAC / 5 Ref Frames
Параметр CABAC формата : Да
Параметр RefFrames формата : 5 кадров
Идентификатор кодека : V_MPEG4/ISO/AVC
Продолжительность : 1 ч. 28 м.
Битрейт : 6 757 Кбит/сек
Ширина : 1 916 пикселей
Высота : 800 пикселей
Соотношение сторон : 2,40:1
Режим частоты кадров : Постоянный
Частота кадров : 23,976 (24000/1001) кадра/сек
Цветовое пространство : YUV
Субдискретизация насыщенности : 4:2:0
Битовая глубина : 8 бит
Тип развёртки : Прогрессивная
Бит/(Пиксели*Кадры) : 0.184
Размер потока : 4,16 Гбайт (87%)
Заголовок : NT
Язык : English
Default : Да
Forced : Нет
Цветовой диапазон : Limited
Основные цвета : BT.709
Характеристики трансфера : BT.709
Коэффициенты матрицы : BT.709
Аудио #1
Идентификатор : 2
Формат : AC-3
Формат/Информация : Audio Coding 3
Коммерческое название : Dolby Digital
Идентификатор кодека : A_AC3
Продолжительность : 1 ч. 28 м.
Вид битрейта : Постоянный
Битрейт : 384 Кбит/сек
Каналы : 6 каналов
Channel layout : L R C LFE Ls Rs
Частота : 48,0 КГц
Частота кадров : 31,250 кадров/сек (1536 SPF)
Метод сжатия : С потерями
Размер потока : 242 Мбайт (5%)
Заголовок : MVO - Jaskier
Язык : Russian
Service kind : Complete Main
Default : Да
Forced : Нет
Аудио #2
Идентификатор : 3
Формат : E-AC-3
Формат/Информация : Enhanced AC-3
Коммерческое название : Dolby Digital Plus
Идентификатор кодека : A_EAC3
Продолжительность : 1 ч. 28 м.
Вид битрейта : Постоянный
Битрейт : 640 Кбит/сек
Каналы : 6 каналов
Channel layout : L R C LFE Ls Rs
Частота : 48,0 КГц
Частота кадров : 31,250 кадров/сек (1536 SPF)
Метод сжатия : С потерями
Размер потока : 403 Мбайт (8%)
Заголовок : Original
Язык : English
Service kind : Complete Main
Default : Нет
Forced : Нет
Текст
Идентификатор : 4
Формат : UTF-8
Идентификатор кодека : S_TEXT/UTF8
Идентификатор кодека/Информация : UTF-8 Plain Text
Продолжительность : 1 ч. 22 м.
Битрейт : 38 бит/сек
Count of elements : 1017
Размер потока : 23,4 Кбайт (0%)
Заголовок : [SDH]
Язык : English
Default : Нет
Forced : Нет
Скриншоты:
Все одноименные релизы в КлубеВремя раздачи: 24/7 (до 10-скачавших)
[Профиль] [ЛС]
Показать сообщения:    
Ответить на тему

Текущее время: 29-Фев 12:39

Часовой пояс: UTC ± 0



Вы не можете начинать темы
Вы не можете отвечать на сообщения
Вы не можете редактировать свои сообщения
Вы не можете удалять свои сообщения
Вы не можете голосовать в опросах
Вы не можете прикреплять файлы к сообщениям
Вы не можете скачивать файлы

[  Время выполнения: 0,028 сек  |  MySQL: 0,003 сек (9%) · 3 запр.  |  GZIP выкл  |  Память: 422,29 KB / 1,72 MB / 1,34 MB  |  Лимит: 16 16 15  ]