Машина / The Machine (2023) BDRip [H.264/1080p-LQ]

Ответить на тему
 
Автор Сообщение

admin ®

Пол: Не указан

Стаж: 4 месяца 23 дня

Сообщений: 10110

Создавать темы 30-Янв-2024 17:20

[Цитировать]

Машина / The Machine (2023) BDRip [H.264/1080p-LQ]- Производство: США / Balkanic Media, Shaken Not Stirred
Жанр: боевик, комедия
Режиссер: Питер Атенсио
Продюсер: Питер Атенсио, Кейл Бойтер,
Актеры: Берт Крайшер, Марк Хэмилл, Джимми Татро, Айва Бабич, Роберт Мазер, Стефани Курцуба, Мартин Форд, Джесс Габор, , Никола Джуричко
Описание: В юности главный герой Берт волею случая и собственного раздолбайства оказался в России 1990-х годов, где связался с местными бандитами. Вместо учебы в России Берт в основном пил и путался с сомнительными личностями, результатом чего стало его участие в преступлении. Спустя 20 лет герой вновь сталкивается со своим бурным прошлым, когда Берта и его отца похищают люди, которых он обманул в России во времена своего студенчества. «Машина» — криминальная комедия по мотивам популярного стендапа комика Берта Крайшера.
Рейтинг MPAA: R (Лицам до 17 обязательно присутствие взрослых)
Релиз от: LORDKILL
Продолжительность: 01:52:23
Качество видео: BDRip 1080p
Перевод: Профессиональный многоголосый (Лицензия, Jaskier, HDRezka Studio)
Язык озвучки: Русский
Субтитры: Русские (Forced, Full)
Видео: AVC/H.264, 1920x804, ~4500 kbps
Аудио 1: AC3, 6 ch, 384 kbps - Русский (MVO, Лицензия)
Аудио 2: AC3, 6 ch, 384 kbps - Русский (MVO, Jaskier)
Аудио 3: AC3, 6 ch, 448 kbps - Русский (MVO, HDRezka Studio)

Mediainfo:

General
Unique ID : 89002148555488745883819279564640585610 (0x42F530B79E18BF806F02C4027BAF878A)
Complete name : D:\РЕМУКС\Машина (2023).mkv
Format : Matroska
Format version : Version 4
File size : 4.49 GiB
Duration : 1 h 52 min
Overall bit rate : 5 719 kb/s
Frame rate : 23.976 FPS
Movie name : Машина / The Machine (2023) - #LORDKILL#
Encoded date : 2023-08-13 06:53:55 UTC
Writing application : mkvmerge v32.0.0 ('Astral Progressions') 64-bit
Writing library : libebml v1.3.7 + libmatroska v1.5.0
Video
ID : 1
Format : AVC
Format/Info : Advanced Video Codec
Format profile : High@L4.1
Format settings : CABAC / 5 Ref Frames
Format settings, CABAC : Yes
Format settings, Reference : 5 frames
Codec ID : V_MPEG4/ISO/AVC
Duration : 1 h 52 min
Bit rate : 4 500 kb/s
Width : 1 920 pixels
Height : 804 pixels
Display aspect ratio : 2.40:1
Frame rate mode : Constant
Frame rate : 23.976 (24000/1001) FPS
Color space : YUV
Chroma subsampling : 4:2:0
Bit depth : 8 bits
Scan type : Progressive
Bits/(Pixel*Frame) : 0.122
Stream size : 3.53 GiB (79%)
Writing library : x264 core 163 r3060 5db6aa6
Encoding settings : cabac=1 / ref=5 / deblock=1:-3:-3 / analyse=0x3:0x113 / me=umh / subme=10 / psy=1 / psy_rd=1.00:0.25 / mixed_ref=1 / me_range=32 / chroma_me=1 / trellis=2 / 8x8dct=1 / cqm=0 / deadzone=6,6 / fast_pskip=0 / chroma_qp_offset=-4 / threads=17 / lookahead_threads=4 / sliced_threads=0 / nr=0 / decimate=0 / interlaced=0 / bluray_compat=0 / constrained_intra=0 / bframes=10 / b_pyramid=2 / b_adapt=2 / b_bias=0 / direct=3 / weightb=1 / open_gop=0 / weightp=2 / keyint=240 / keyint_min=24 / scenecut=40 / intra_refresh=0 / rc=2pass / mbtree=0 / bitrate=4500 / ratetol=1.0 / qcomp=0.80 / qpmin=0 / qpmax=69 / qpstep=4 / cplxblur=20.0 / qblur=0.5 / ip_ratio=1.10 / pb_ratio=1.10 / aq=1:0.50
Language : English
Default : Yes
Forced : No
Audio #1
ID : 2
Format : AC-3
Format/Info : Audio Coding 3
Commercial name : Dolby Digital
Codec ID : A_AC3
Duration : 1 h 52 min
Bit rate mode : Constant
Bit rate : 384 kb/s
Channel(s) : 6 channels
Channel layout : L R C LFE Ls Rs
Sampling rate : 48.0 kHz
Frame rate : 31.250 FPS (1536 SPF)
Compression mode : Lossy
Stream size : 309 MiB (7%)
Title : MVO (Лицензия)
Language : Russian
Service kind : Complete Main
Default : Yes
Forced : No
Audio #2
ID : 3
Format : AC-3
Format/Info : Audio Coding 3
Commercial name : Dolby Digital
Codec ID : A_AC3
Duration : 1 h 52 min
Bit rate mode : Constant
Bit rate : 384 kb/s
Channel(s) : 6 channels
Channel layout : L R C LFE Ls Rs
Sampling rate : 48.0 kHz
Frame rate : 31.250 FPS (1536 SPF)
Compression mode : Lossy
Stream size : 309 MiB (7%)
Title : MVO (Jaskier)
Language : Russian
Service kind : Complete Main
Default : No
Forced : No
Audio #3
ID : 4
Format : AC-3
Format/Info : Audio Coding 3
Commercial name : Dolby Digital
Codec ID : A_AC3
Duration : 1 h 52 min
Bit rate mode : Constant
Bit rate : 448 kb/s
Channel(s) : 6 channels
Channel layout : L R C LFE Ls Rs
Sampling rate : 48.0 kHz
Frame rate : 31.250 FPS (1536 SPF)
Compression mode : Lossy
Stream size : 360 MiB (8%)
Title : MVO (HDRezka Studio)
Language : Russian
Service kind : Complete Main
Default : No
Forced : No
Text #1
ID : 5
Format : UTF-8
Codec ID : S_TEXT/UTF8
Codec ID/Info : UTF-8 Plain Text
Duration : 1 h 51 min
Bit rate : 1 b/s
Frame rate : 0.004 FPS
Count of elements : 28
Stream size : 1.07 KiB (0%)
Title : Forced
Language : Russian
Default : Yes
Forced : No
Text #2
ID : 6
Format : UTF-8
Codec ID : S_TEXT/UTF8
Codec ID/Info : UTF-8 Plain Text
Duration : 1 h 51 min
Bit rate : 100 b/s
Frame rate : 0.281 FPS
Count of elements : 1884
Stream size : 82.1 KiB (0%)
Title : Full
Language : Russian
Default : No
Forced : No
Menu
00:00:00.000 : Глава 01
00:04:26.141 : Глава 02
00:09:32.030 : Глава 03
00:14:27.366 : Глава 04
00:19:11.525 : Глава 05
00:25:28.026 : Глава 06
00:30:57.189 : Глава 07
00:36:34.734 : Глава 08
00:42:12.655 : Глава 09
00:53:41.343 : Глава 10
01:01:37.360 : Глава 11
01:05:53.366 : Глава 12
01:16:47.311 : Глава 13
01:22:28.193 : Глава 14
01:37:28.801 : Глава 15
01:43:38.754 : Глава 16
01:46:08.362 : Глава 17
Скриншоты:
Все одноименные релизы в КлубеВремя раздачи: 24/7 (круглосуточно) (до появления первых 3-5 скачавших)
[Профиль] [ЛС]
Показать сообщения:    
Ответить на тему

Текущее время: 22-Фев 02:23

Часовой пояс: UTC ± 0



Вы не можете начинать темы
Вы не можете отвечать на сообщения
Вы не можете редактировать свои сообщения
Вы не можете удалять свои сообщения
Вы не можете голосовать в опросах
Вы не можете прикреплять файлы к сообщениям
Вы не можете скачивать файлы

[  Время выполнения: 0,025 сек  |  MySQL: 0,002 сек (9%) · 3 запр.  |  GZIP выкл  |  Память: 421,85 KB / 1,73 MB / 1,35 MB  |  Лимит: 9 8 9  ]