Наёмный убийца / The Assassin / Salsu (2023) BDRip [H.264/1080p-LQ]

Ответить на тему
 
Автор Сообщение

admin ®

Пол: Не указан

Стаж: 4 месяца 27 дня

Сообщений: 10110

Создавать темы 30-Янв-2024 17:20

[Цитировать]

Наёмный убийца / Salsu (2023) BDRip [H.264/1080p-LQ]- Производство: Корея Южная / JNC Media GroupJoy n Cinema
Жанр: боевик
Режиссер: Квак Чон-док
Актеры: Щин Хён-джун, Ли Мун-щик, Ким Мин-гён, Ли Джон-мин, Мин Гён-джин
Описание:
После нескольких войн Чосон находится в хаосе, законы перестали служить людям, а амбиции правителей зашкаливают. Они нанимают убийц, которые уничтожали тех, кто впал в немилость. Ли Нан был лучшим наёмным убийцей Чосона. Откуда он и на кого работает - никто не знает, но он всегда выполняет работу безукоризненно. Однажды Ли Нан вынужден обратиться к лекарю: его мучают боли в сердце. Вскоре опускает меч и скрывается там, где его никто не узнает. Но от судьбы не скроешься.
Возраст: 18+ (зрителям, достигшим 18 лет. запрещено для детей)
Релиз от: LORDKILL
Продолжительность: 01:40:37
Качество видео: BDRip 1080p
Перевод: Дублированный (Akimbo Production)
Язык озвучки: Русский
Субтитры: Отсутствуют
Видео: AVC/H.264, 1920x1038, ~5000 Kbps
Аудио: AC3, 6 ch, 448 kbps - Русский

MediaInfo:

x264 [info]: frame I:1463  Avg QP:16.46  size:177970
x264 [info]: frame P:35242 Avg QP:19.11 size: 51440
x264 [info]: frame B:108059 Avg QP:20.43 size: 15711
x264 [info]: consecutive B-frames: 3.9% 5.8% 7.9% 22.4% 17.1% 37.3% 3.1% 1.1% 0.4% 0.3% 0.9%
General
Unique ID : 191906823421976116455184369352764104855 (0x905FE8E7157FEC30064762718E352097)
Complete name : D:\РЕМУКС\Наёмный убийца (2023).mkv
Format : Matroska
Format version : Version 4
File size : 3.83 GiB
Duration : 1 h 40 min
Overall bit rate : 5 446 kb/s
Frame rate : 23.976 FPS
Movie name : Наёмный убийца / Salsu / Night of the Assassin (2023) - #LORDKILL#
Encoded date : 2023-08-15 16:26:33 UTC
Writing application : mkvmerge v32.0.0 ('Astral Progressions') 64-bit
Writing library : libebml v1.3.7 + libmatroska v1.5.0
Video
ID : 1
Format : AVC
Format/Info : Advanced Video Codec
Format profile : High@L4.1
Format settings : CABAC / 4 Ref Frames
Format settings, CABAC : Yes
Format settings, Reference : 4 frames
Codec ID : V_MPEG4/ISO/AVC
Duration : 1 h 40 min
Bit rate : 5 000 kb/s
Width : 1 920 pixels
Height : 1 038 pixels
Display aspect ratio : 1.85:1
Frame rate mode : Constant
Frame rate : 23.976 (24000/1001) FPS
Color space : YUV
Chroma subsampling : 4:2:0
Bit depth : 8 bits
Scan type : Progressive
Bits/(Pixel*Frame) : 0.105
Stream size : 3.51 GiB (92%)
Writing library : x264 core 164 r3100 ed0f7a6
Encoding settings : cabac=1 / ref=4 / deblock=1:-2:-2 / analyse=0x3:0x113 / me=umh / subme=10 / psy=1 / psy_rd=1.00:0.20 / mixed_ref=1 / me_range=32 / chroma_me=1 / trellis=2 / 8x8dct=1 / cqm=0 / deadzone=21,11 / fast_pskip=0 / chroma_qp_offset=-3 / threads=24 / lookahead_threads=6 / sliced_threads=0 / nr=0 / decimate=1 / interlaced=0 / bluray_compat=0 / constrained_intra=0 / bframes=10 / b_pyramid=2 / b_adapt=2 / b_bias=0 / direct=3 / weightb=1 / open_gop=0 / weightp=2 / keyint=240 / keyint_min=23 / scenecut=40 / intra_refresh=0 / rc=2pass / mbtree=0 / bitrate=5000 / ratetol=1.0 / qcomp=0.60 / qpmin=0 / qpmax=69 / qpstep=4 / cplxblur=20.0 / qblur=0.5 / ip_ratio=1.40 / pb_ratio=1.30 / aq=1:1.00
Default : Yes
Forced : No
Audio
ID : 2
Format : AC-3
Format/Info : Audio Coding 3
Commercial name : Dolby Digital
Codec ID : A_AC3
Duration : 1 h 40 min
Bit rate mode : Constant
Bit rate : 448 kb/s
Channel(s) : 6 channels
Channel layout : L R C LFE Ls Rs
Sampling rate : 48.0 kHz
Frame rate : 31.250 FPS (1536 SPF)
Compression mode : Lossy
Stream size : 322 MiB (8%)
Title : Дубляж
Language : Russian
Service kind : Complete Main
Default : Yes
Forced : No
Menu
00:00:00.000 : Chapter 01
00:06:42.277 : Chapter 02
00:15:56.914 : Chapter 03
00:21:08.684 : Chapter 04
00:26:41.850 : Chapter 05
00:33:01.396 : Chapter 06
00:41:01.084 : Chapter 07
00:48:42.336 : Chapter 08
00:57:11.011 : Chapter 09
01:01:48.496 : Chapter 10
01:07:21.329 : Chapter 11
01:14:09.278 : Chapter 12
01:20:49.928 : Chapter 13
01:27:16.982 : Chapter 14
01:33:40.657 : Chapter 15
01:37:45.818 : Chapter 16
Скриншоты: Все одноименные релизы в КлубеВремя раздачи: 24/7 (круглосуточно) (до появления первых 10 скачавших)
[Профиль] [ЛС]
Показать сообщения:    
Ответить на тему

Текущее время: 25-Фев 17:52

Часовой пояс: UTC ± 0



Вы не можете начинать темы
Вы не можете отвечать на сообщения
Вы не можете редактировать свои сообщения
Вы не можете удалять свои сообщения
Вы не можете голосовать в опросах
Вы не можете прикреплять файлы к сообщениям
Вы не можете скачивать файлы

[  Время выполнения: 0,030 сек  |  MySQL: 0,003 сек (10%) · 3 запр.  |  GZIP выкл  |  Память: 422,29 KB / 1,72 MB / 1,32 MB  |  Лимит: 8 9 9  ]