Наёмный убийца / The Assassin / Salsu (2023) BDRemux [H.264/1080p]

Ответить на тему
 
Автор Сообщение

admin ®

Пол: Не указан

Стаж: 4 месяца 23 дня

Сообщений: 10110

Создавать темы 30-Янв-2024 17:20

[Цитировать]

Наёмный убийца / Salsu (2023) BDRemux [H.264/1080p]- Производство: Корея Южная / JNC Media GroupJoy n Cinema
Жанр: боевик
Режиссер: Квак Чон-док
Актеры: Щин Хён-джун, Ли Мун-щик, Ким Мин-гён, Хон Ын-ги, Ли Джон-мин, Пак Чэ-хун, Ли Ро-ун, Ким Бён-чхун, Чон Бом-джун, Ли Хён-голь
Описание:
После нескольких войн Чосон находится в хаосе, законы перестали служить людям, а амбиции правителей зашкаливают. Они нанимают убийц, которые уничтожали тех, кто впал в немилость. Ли Нан был лучшим наёмным убийцей Чосона. Откуда он и на кого работает - никто не знает, но он всегда выполняет работу безукоризненно. Однажды Ли Нан вынужден обратиться к лекарю: его мучают боли в сердце. Вскоре опускает меч и скрывается там, где его никто не узнает. Но от судьбы не скроешься.
Возраст: 18+ (зрителям, достигшим 18 лет. запрещено для детей)
Релиз от: AsiaOne
Продолжительность: 01:40:37
Качество видео: BDRemux
Перевод: Дублированный (Akimbo Production)
Язык озвучки: Русский, Корейский
Субтитры: английские
Видео: AVC/H.264, 1920x1080, 35.0 Мbps
Аудио 1: AC3, 6 ch, 448 kbps - Русский
Аудио 2: DTS-HD MA, 6 ch, 3876 kbps - Корейский

MediaInfo:

General
Unique ID : 74661242827871032520258051055612092695 (0x382B3B79A248B471CA0C11DBF5CC6117)
Complete name : The.Assassin.2023.BDRemux.1080p-AsiaOne-Kyle.mkv
Format : Matroska
Format version : Version 4
File size : 26.6 GiB
Duration : 1 h 40 min
Overall bit rate mode : Variable
Overall bit rate : 37.9 Mb/s
Encoded date : UTC 2023-08-11 13:43:06
Writing application : mkvmerge v78.0 ('Running') 64-bit
Writing library : libebml v1.4.4 + libmatroska v1.7.1
Video
ID : 1
Format : AVC
Format/Info : Advanced Video Codec
Format profile : High@L4.1
Format settings : CABAC / 4 Ref Frames
Format settings, CABAC : Yes
Format settings, Reference frames : 4 frames
Codec ID : V_MPEG4/ISO/AVC
Duration : 1 h 40 min
Bit rate mode : Variable
Bit rate : 35.0 Mb/s
Width : 1 920 pixels
Height : 1 080 pixels
Display aspect ratio : 16:9
Frame rate mode : Constant
Frame rate : 23.976 (24000/1001) FPS
Color space : YUV
Chroma subsampling : 4:2:0
Bit depth : 8 bits
Scan type : Progressive
Bits/(Pixel*Frame) : 0.704
Stream size : 23.6 GiB (89%)
Writing library : x264 core 164 r3106 eaa68fa
Encoding settings : cabac=1 / ref=4 / deblock=1:0:0 / analyse=0x3:0x113 / me=umh / subme=9 / psy=1 / psy_rd=1.00:0.00 / mixed_ref=1 / me_range=16 / chroma_me=1 / trellis=2 / 8x8dct=1 / cqm=1 / deadzone=21,11 / fast_pskip=1 / chroma_qp_offset=-2 / threads=24 / lookahead_threads=2 / sliced_threads=0 / slices=4 / nr=0 / decimate=1 / interlaced=0 / bluray_compat=1 / constrained_intra=0 / bframes=2 / b_pyramid=0 / b_adapt=2 / b_bias=0 / direct=3 / weightb=1 / open_gop=1 / weightp=1 / keyint=24 / keyint_min=1 / scenecut=40 / intra_refresh=0 / rc_lookahead=24 / rc=2pass / mbtree=1 / bitrate=35000 / ratetol=1.0 / qcomp=0.60 / qpmin=3 / qpmax=69 / qpstep=4 / cplxblur=20.0 / qblur=0.5 / vbv_maxrate=35000 / vbv_bufsize=30000 / nal_hrd=vbr / filler=0 / ip_ratio=1.40 / aq=1:1.00
Default : Yes
Forced : No
Color range : Limited
Color primaries : BT.709
Transfer characteristics : BT.709
Matrix coefficients : BT.709
Audio #1
ID : 2
Format : E-AC-3
Format/Info : Enhanced AC-3
Commercial name : Dolby Digital Plus
Codec ID : A_EAC3
Duration : 1 h 40 min
Bit rate mode : Constant
Bit rate : 448 kb/s
Channel(s) : 6 channels
Channel layout : L R C LFE Ls Rs
Sampling rate : 48.0 kHz
Frame rate : 31.250 FPS (1536 SPF)
Compression mode : Lossy
Stream size : 322 MiB (1%)
Title : Russian
Language : Russian
Service kind : Complete Main
Default : Yes
Forced : No
Audio #2
ID : 3
Format : DTS XLL
Format/Info : Digital Theater Systems
Commercial name : DTS-HD Master Audio
Codec ID : A_DTS
Duration : 1 h 40 min
Bit rate mode : Variable
Bit rate : 3 876 kb/s
Channel(s) : 6 channels
Channel layout : C L R Ls Rs LFE
Sampling rate : 48.0 kHz
Frame rate : 93.750 FPS (512 SPF)
Bit depth : 24 bits
Compression mode : Lossless
Stream size : 2.72 GiB (10%)
Title : Korean
Language : Korean
Default : No
Forced : No
Text
ID : 4
Format : UTF-8
Codec ID : S_TEXT/UTF8
Codec ID/Info : UTF-8 Plain Text
Duration : 1 h 36 min
Bit rate : 31 b/s
Frame rate : 0.144 FPS
Count of elements : 837
Stream size : 22.0 KiB (0%)
Title : English, Netflix
Language : English
Default : No
Forced : No
Menu
00:00:00.000 : Chapter 01
00:06:42.277 : Chapter 02
00:15:56.914 : Chapter 03
00:21:08.684 : Chapter 04
00:26:41.850 : Chapter 05
00:33:01.396 : Chapter 06
00:41:01.084 : Chapter 07
00:48:42.336 : Chapter 08
00:57:11.011 : Chapter 09
01:01:48.496 : Chapter 10
01:07:21.329 : Chapter 11
01:14:09.278 : Chapter 12
01:20:49.928 : Chapter 13
01:27:16.982 : Chapter 14
01:33:40.657 : Chapter 15
01:37:45.818 : Chapter 16
Скриншоты: Все одноименные релизы в КлубеВремя раздачи: 24/7 (мультитрекер)
[Профиль] [ЛС]
Показать сообщения:    
Ответить на тему

Текущее время: 22-Фев 01:38

Часовой пояс: UTC ± 0



Вы не можете начинать темы
Вы не можете отвечать на сообщения
Вы не можете редактировать свои сообщения
Вы не можете удалять свои сообщения
Вы не можете голосовать в опросах
Вы не можете прикреплять файлы к сообщениям
Вы не можете скачивать файлы

[  Время выполнения: 0,037 сек  |  MySQL: 0,003 сек (9%) · 3 запр.  |  GZIP выкл  |  Память: 421,85 KB / 1,74 MB / 1,36 MB  |  Лимит: 19 19 19  ]