Рай для дурака / Fool's Paradise (2023) BDRip [H.264/1080p]

Ответить на тему
 
Автор Сообщение

admin ®

Пол: Не указан

Стаж: 4 месяца 27 дня

Сообщений: 10110

Создавать темы 30-Янв-2024 17:20

[Цитировать]

Рай для дурака / Fool's Paradise (2023) BDRip [H.264/1080p]- Производство: США / Armory Films, Page Fifty-Four Pictures, Rickard Pictures
Жанр: комедия
Режиссер: Чарли Дэй
Продюсер: Алекс Сакс
Актеры: Чарли Дэй, Кен Жонг, Кейт Бекинсейл, Эдриан Броуди, Джейсон Судейкис, Рэй Лиотта, Стив Култер, Джейсон Бейтман, Иди Фалько, Мэри Элизабет Эллис
Описание: Знаменитый актер отказывается выходить на съемочную площадку. Судьба картины под вопросом. И тут продюсер встречает на улице человека, похожего на своего капризного актера, как две капли воды. Вместе со сценаристом и непредсказуемым режиссером он решает использовать его как двойника для съемок и не только.
Возраст: 18+ (Зрителям, достигшим 18 лет)
Рейтинг MPAA: R (Лицам до 17 обязательно присутствие взрослых)
Релиз от: Soft-Torrent - торрент игры программы фильмы книги скачать
Продолжительность: 01:38:22
Качество видео: BDRip 1080p
Перевод: Дублированный (Мосфильм-Мастер)
Язык озвучки: Русский, Английский
Субтитры: Английские (Full, SDH)
Видео: AVC/H.264, 1920x804, 16.4 Mbps, 23.976 fps
Аудио 1: E-AC-3, 6 ch, 384 Kbps | Русский
Аудио 2: E-AC-3, 6 ch, 1024 Kbps | Английский

Mediainfo:

General
Unique ID : 154526543606930358916672834187500701356 (0x7440BAD12082CBFE290C8A230A47C6AC)
Complete name : /Volumes/Promise Pegasus/Fools.Paradise.2023.BDRip.1080p.pk.mkv
Format : Matroska
Format version : Version 4
File size : 12.3 GiB
Duration : 1 h 38 min
Overall bit rate : 17.8 Mb/s
Frame rate : 23.976 FPS
Movie name : Fool's Paradise 2023 BDRip 1080p pk
Encoded date : 2023-08-16 14:45:19 UTC
Writing application : mkvmerge v73.0.0 ('25 or 6 to 4') 64-bit
Writing library : libebml v1.4.4 + libmatroska v1.7.1
Video
ID : 1
Format : AVC
Format/Info : Advanced Video Codec
Format profile : High@L4.1
Format settings : CABAC / 5 Ref Frames
Format settings, CABAC : Yes
Format settings, Reference frames : 5 frames
Codec ID : V_MPEG4/ISO/AVC
Duration : 1 h 38 min
Bit rate : 16.4 Mb/s
Width : 1 920 pixels
Height : 804 pixels
Display aspect ratio : 2.40:1
Frame rate mode : Constant
Frame rate : 23.976 (24000/1001) FPS
Color space : YUV
Chroma subsampling : 4:2:0
Bit depth : 8 bits
Scan type : Progressive
Bits/(Pixel*Frame) : 0.444
Stream size : 11.3 GiB (92%)
Writing library : x264 core 164 r3107+58M encoded by pk5360114 from Russia
Encoding settings : cabac=1 / ref=5 / deblock=1:-3:-3 / analyse=0x3:0x133 / me=esa / subme=11 / psy=1 / fade_compensate=0.00 / psy_rd=1.05:0.00 / mixed_ref=1 / me_range=32 / chroma_me=1 / trellis=2 / 8x8dct=1 / cqm=0 / deadzone=21,11 / fast_pskip=0 / chroma_qp_offset=-2 / threads=25 / lookahead_threads=6 / sliced_threads=0 / nr=0 / decimate=0 / interlaced=0 / bluray_compat=0 / constrained_intra=0 / fgo=0 / bframes=11 / b_pyramid=2 / b_adapt=2 / b_bias=0 / direct=3 / weightb=1 / open_gop=0 / weightp=2 / keyint=240 / keyint_min=23 / scenecut=40 / intra_refresh=0 / rc_lookahead=60 / rc=crf / mbtree=0 / crf=18.8000 / qcomp=0.63 / qpmin=0:0:0 / qpmax=69:69:69 / qpstep=4 / vbv_maxrate=62500 / vbv_bufsize=78125 / crf_max=0.0 / nal_hrd=none / filler=0 / ip_ratio=1.30 / pb_ratio=1.20 / aq=3:0.75 / aq-sensitivity=10.00 / aq-factor=1.00:1.00:1.00:1.00 / aq2=0 / aq3=0
Language : English
Default : Yes
Forced : No
Color range : Limited
Color primaries : BT.709
Transfer characteristics : BT.709
Matrix coefficients : BT.709
Audio #1
ID : 2
Format : E-AC-3
Format/Info : Enhanced AC-3
Commercial name : Dolby Digital Plus
Codec ID : A_EAC3
Duration : 1 h 38 min
Bit rate mode : Constant
Bit rate : 384 kb/s
Channel(s) : 6 channels
Channel layout : L R C LFE Ls Rs
Sampling rate : 48.0 kHz
Frame rate : 31.250 FPS (1536 SPF)
Compression mode : Lossy
Stream size : 270 MiB (2%)
Title : Russian Dub Мосфильм-Мастер
Language : Russian
Service kind : Complete Main
Default : Yes
Forced : No
Audio #2
ID : 3
Format : E-AC-3
Format/Info : Enhanced AC-3
Commercial name : Dolby Digital Plus
Codec ID : A_EAC3
Duration : 1 h 38 min
Bit rate mode : Constant
Bit rate : 1 024 kb/s
Channel(s) : 6 channels
Channel layout : L R C LFE Ls Rs
Sampling rate : 48.0 kHz
Frame rate : 31.250 FPS (1536 SPF)
Compression mode : Lossy
Stream size : 720 MiB (6%)
Title : English Original
Language : English
Service kind : Complete Main
Default : No
Forced : No
Text #1
ID : 4
Format : UTF-8
Codec ID : S_TEXT/UTF8
Codec ID/Info : UTF-8 Plain Text
Duration : 1 h 31 min
Bit rate : 83 b/s
Frame rate : 0.304 FPS
Count of elements : 1678
Stream size : 56.5 KiB (0%)
Title : English full
Language : English
Default : No
Forced : No
Text #2
ID : 5
Format : UTF-8
Codec ID : S_TEXT/UTF8
Codec ID/Info : UTF-8 Plain Text
Duration : 1 h 37 min
Bit rate : 89 b/s
Frame rate : 0.325 FPS
Count of elements : 1900
Stream size : 63.7 KiB (0%)
Title : English SDH
Language : English
Default : No
Forced : No
Menu
00:00:00.000 : en:Chapter 01
00:07:16.435 : en:Chapter 02
00:18:38.575 : en:Chapter 03
00:26:39.513 : en:Chapter 04
00:35:20.952 : en:Chapter 05
00:42:45.271 : en:Chapter 06
00:49:49.987 : en:Chapter 07
00:57:34.576 : en:Chapter 08
01:05:40.186 : en:Chapter 09
01:15:01.497 : en:Chapter 10
01:22:24.939 : en:Chapter 11
01:32:39.554 : en:Chapter 12

x264 log:

x264 [info]: frame I:1034  Avg QP:17.48  size:209997
x264 [info]: frame P:28179 Avg QP:19.07 size:120314
x264 [info]: frame B:112299 Avg QP:20.80 size: 75792
x264 [info]: consecutive B-frames: 1.5% 3.7% 4.8% 12.2% 13.6% 47.9% 7.1% 1.6% 2.9% 2.1% 1.5% 1.1%
x264 [info]: kb/s:16426.03

Скриншоты сравнения






Скриншоты:
Все одноименные релизы в КлубеВремя раздачи: 24/7 (круглосуточно) (до появления первых 3-5 скачавших)
[Профиль] [ЛС]
Показать сообщения:    
Ответить на тему

Текущее время: 25-Фев 22:51

Часовой пояс: UTC ± 0



Вы не можете начинать темы
Вы не можете отвечать на сообщения
Вы не можете редактировать свои сообщения
Вы не можете удалять свои сообщения
Вы не можете голосовать в опросах
Вы не можете прикреплять файлы к сообщениям
Вы не можете скачивать файлы

[  Время выполнения: 0,033 сек  |  MySQL: 0,003 сек (9%) · 3 запр.  |  GZIP выкл  |  Память: 422,29 KB / 1,73 MB / 1,35 MB  |  Лимит: 7 8 9  ]