Красный, белый и королевский синий / Red, White & Royal Blue (2023) WEB-DL [H.264/1080p] [MVO]

Ответить на тему
 
Автор Сообщение

admin ®

Пол: Не указан

Стаж: 5 месяца

Сообщений: 10110

Создавать темы 30-Янв-2024 17:20

[Цитировать]

Красный, белый и королевский синий / Red, White & Royal Blue (2023) WEB-DL [H.264/1080p] [MVO]- Производство: США / Amazon Prime Video
Жанр: комедия, мелодрама, экранизация
Режиссер: Мэттью Лопес
Актеры: Тейлор Захар Перес, Николас Голицын, Клифтон Коллинз мл., Сара Шахи, Рэйчел Хилсон, Стивен Фрай, Ума Турман, Элли Бамбер, Томас Флинн
Описание:
Сын президента США Алекс и британский принц Генри терпеть друг друга не могут. Однажды на приёме в Букингемском дворце их перепалка приводит к тому, что на обоих падает огромный торт — снимки разлетаются по соцсетям, назревает международный скандал. Чтобы не испортить отношения между странами, парни теперь должны делать вид, что уже давно дружат и тогда просто дурачились. Постепенно эта вынужденная показуха перерастает в нечто большее.
Возраст: 18+ (зрителям, достигшим 18 лет. запрещено для детей)
Рейтинг MPAA: R (лицам до 17 лет обязательно присутствие взрослого)
Продолжительность: 02:01:09
Качество видео: WEB-DL (1080p)
Перевод: Многоголосый профессиональный (Jaskier)
Язык озвучки: Русский, английский
Субтитры: Русские, украинские, английские
Видео: AVC/H.264, 1920x1080, ~8876 Kbps
Аудио #1: AC3, 6 ch, 448 Kbps - Русский (MVO Jaskier)
Аудио #2: E-AC3, 6 ch, 640 Kbps - Английский (Оригинал)

MediaInfo:

Общее
Уникальный идентификатор : 24878612795806297058912758885173365011 (0x12B772502C00A52D57EC1FBC4E9F0913)
Полное имя : D:\NNM\Красный, белый и королевский синий\Red.White.and.Royal.Blue.2023.1080p.WEB-DL.Rus.Eng.Subs-alekartem.mkv
Формат : Matroska
Версия формата : Version 4
Размер файла : 8,44 Гбайт
Продолжительность : 2 ч. 1 м.
Общий поток : 9 968 Кбит/сек
Дата кодирования : UTC 2023-08-16 13:16:57
Программа кодирования : mkvmerge v68.0.0 ('The Curtain') 64-bit
Библиотека кодирования : libebml v1.4.2 + libmatroska v1.6.4
Attachments : сover.jpg
Видео
Идентификатор : 1
Формат : AVC
Формат/Информация : Advanced Video Codec
Профиль формата : High@L4
Настройки формата : CABAC / 4 Ref Frames
Параметр CABAC формата : Да
Параметр RefFrames формата : 4 кадра
Идентификатор кодека : V_MPEG4/ISO/AVC
Продолжительность : 2 ч. 1 м.
Вид битрейта : Постоянный
Битрейт : 8 876 Кбит/сек
Номинальный битрейт : 10 000 Кбит/сек
Ширина : 1 920 пикселей
Высота : 1 080 пикселей
Соотношение сторон : 16:9
Режим частоты кадров : Постоянный
Частота кадров : 24,000 кадра/сек
Цветовое пространство : YUV
Субдискретизация насыщенности : 4:2:0
Битовая глубина : 8 бит
Тип развёртки : Прогрессивная
Бит/(Пиксели*Кадры) : 0.178
Размер потока : 7,51 Гбайт (89%)
Язык : English
Default : Да
Forced : Нет
Цветовой диапазон : Limited
Основные цвета : BT.709
Характеристики трансфера : BT.709
Коэффициенты матрицы : BT.709
Аудио #1
Идентификатор : 2
Формат : AC-3
Формат/Информация : Audio Coding 3
Коммерческое название : Dolby Digital
Идентификатор кодека : A_AC3
Продолжительность : 2 ч. 1 м.
Вид битрейта : Постоянный
Битрейт : 448 Кбит/сек
Каналы : 6 каналов
Channel layout : L R C LFE Ls Rs
Частота : 48,0 КГц
Частота кадров : 31,250 кадров/сек (1536 SPF)
Метод сжатия : С потерями
Размер потока : 388 Мбайт (4%)
Заголовок : MVO [Jaskier]
Язык : Russian
Service kind : Complete Main
Default : Да
Forced : Нет
Аудио #2
Идентификатор : 3
Формат : E-AC-3
Формат/Информация : Enhanced AC-3
Коммерческое название : Dolby Digital Plus
Идентификатор кодека : A_EAC3
Продолжительность : 2 ч. 1 м.
Вид битрейта : Постоянный
Битрейт : 640 Кбит/сек
Каналы : 6 каналов
Channel layout : L R C LFE Ls Rs
Частота : 48,0 КГц
Частота кадров : 31,250 кадров/сек (1536 SPF)
Метод сжатия : С потерями
Размер потока : 555 Мбайт (6%)
Заголовок : Original
Язык : English
Service kind : Complete Main
Default : Нет
Forced : Нет
Текст #1
Идентификатор : 4
Формат : UTF-8
Идентификатор кодека : S_TEXT/UTF8
Идентификатор кодека/Информация : UTF-8 Plain Text
Продолжительность : 1 ч. 57 м.
Битрейт : 104 бит/сек
Count of elements : 1536
Размер потока : 89,6 Кбайт (0%)
Язык : Russian
Default : Нет
Forced : Нет
Текст #2
Идентификатор : 5
Формат : UTF-8
Идентификатор кодека : S_TEXT/UTF8
Идентификатор кодека/Информация : UTF-8 Plain Text
Продолжительность : 1 ч. 57 м.
Битрейт : 101 бит/сек
Count of elements : 1536
Размер потока : 87,5 Кбайт (0%)
Язык : Ukrainian
Default : Нет
Forced : Нет
Текст #3
Идентификатор : 6
Формат : UTF-8
Идентификатор кодека : S_TEXT/UTF8
Идентификатор кодека/Информация : UTF-8 Plain Text
Продолжительность : 1 ч. 57 м.
Битрейт : 72 бит/сек
Count of elements : 1737
Размер потока : 62,4 Кбайт (0%)
Язык : English
Default : Нет
Forced : Нет
Текст #4
Идентификатор : 7
Формат : UTF-8
Идентификатор кодека : S_TEXT/UTF8
Идентификатор кодека/Информация : UTF-8 Plain Text
Продолжительность : 1 ч. 57 м.
Битрейт : 81 бит/сек
Count of elements : 1983
Размер потока : 70,1 Кбайт (0%)
Заголовок : SDH
Язык : English
Default : Нет
Forced : Нет
Скриншоты: Все одноименные релизы в КлубеВремя раздачи: 24/7 (до 10-ти скачавших)
[Профиль] [ЛС]
Показать сообщения:    
Ответить на тему

Текущее время: 28-Фев 21:57

Часовой пояс: UTC ± 0



Вы не можете начинать темы
Вы не можете отвечать на сообщения
Вы не можете редактировать свои сообщения
Вы не можете удалять свои сообщения
Вы не можете голосовать в опросах
Вы не можете прикреплять файлы к сообщениям
Вы не можете скачивать файлы

[  Время выполнения: 0,027 сек  |  MySQL: 0,002 сек (9%) · 3 запр.  |  GZIP выкл  |  Память: 422,29 KB / 1,73 MB / 1,35 MB  |  Лимит: 20 19 17  ]