Убойная игра / Gatlopp (2022) WEB-DL [H.264/1080p]

Ответить на тему
 
Автор Сообщение

admin ®

Пол: Не указан

Стаж: 4 месяца 23 дня

Сообщений: 10110

Создавать темы 30-Янв-2024 17:20

[Цитировать]

Убойная игра / Gatlopp (2022) WEB-DL [H.264/1080p]- Производство: США / American Pantheon, Knights Young Productions, The, Particular Crowd
Жанр: ужасы, комедия
Режиссер: Альберто Белли
Актеры: Эмми Рэйвер-Лэмпман, Джим Махони, Джон Басс, Шарунас Джексон, Шелли Хенниг, Эллен Роу, Нэнси Линехэн Чарльз, Патриша Белчер, Джон Алес, Эми Дэвидсон
Описание:
Группа старых друзей устраивает шумную вечеринку. Чтобы поднять градус веселья, они решают сыграть в новую настольную игру — игру на выпивание. Очень быстро выясняется, что за нарушение главного правила — «не врать» — следуют совсем не шуточные наказания, реализуемые какой-то сверхъестественной силой. С каждым ходом ставки повышаются, а если ни один из участников не сможет выиграть игру до восхода солнца, игра будет длиться вечно.
Возраст: 18+ (зрителям, достигшим 18 лет. запрещено для детей)
Продолжительность: 01:20:29
Качество видео: WEB-DL (1080p)
Перевод: Дублированный (Велес)
Язык озвучки: Русский, английский
Субтитры: Отсутствуют
Видео: AVC/H.264, 1920x1080, ~7608 Kbps
Аудио #1: AC3, 6 ch, 384 Kbps - Русский
Аудио #2: E-AC3, 6 ch, 640 Kbps - Английский

MediaInfo:

Общее
Уникальный идентификатор : 181981197918674249581994154355841926451 (0x88E84DC85F8EBB12A37C6A3E11718533)
Полное имя : D:\NNM\Убойная игра\Gatlopp.2022.AMZN.WEB-DL.1080p.seleZen.mkv
Формат : Matroska
Версия формата : Version 4
Размер файла : 4,85 Гбайт
Продолжительность : 1 ч. 20 м.
Режим общего битрейта : Постоянный
Общий поток : 8 634 Кбит/сек
Название фильма : Gatlopp 2022 from seleZen
Дата кодирования : UTC 2023-08-13 21:48:01
Программа кодирования : mkvmerge v77.0 ('Elemental') 64-bit
Библиотека кодирования : libebml v1.4.4 + libmatroska v1.7.1
Видео
Идентификатор : 1
Формат : AVC
Формат/Информация : Advanced Video Codec
Профиль формата : High@L4
Настройки формата : CABAC / 4 Ref Frames
Параметр CABAC формата : Да
Параметр RefFrames формата : 4 кадра
Идентификатор кодека : V_MPEG4/ISO/AVC
Продолжительность : 1 ч. 20 м.
Вид битрейта : Постоянный
Битрейт : 7 608 Кбит/сек
Номинальный битрейт : 10 000 Кбит/сек
Ширина : 1 920 пикселей
Высота : 1 080 пикселей
Соотношение сторон : 16:9
Режим частоты кадров : Постоянный
Частота кадров : 23,976 (24000/1001) кадра/сек
Цветовое пространство : YUV
Субдискретизация насыщенности : 4:2:0
Битовая глубина : 8 бит
Тип развёртки : Прогрессивная
Бит/(Пиксели*Кадры) : 0.153
Размер потока : 4,28 Гбайт (88%)
Язык : English
Default : Да
Forced : Нет
Цветовой диапазон : Limited
Основные цвета : BT.709
Характеристики трансфера : BT.709
Коэффициенты матрицы : BT.709
Аудио #1
Идентификатор : 2
Формат : AC-3
Формат/Информация : Audio Coding 3
Коммерческое название : Dolby Digital
Идентификатор кодека : A_AC3
Продолжительность : 1 ч. 20 м.
Вид битрейта : Постоянный
Битрейт : 384 Кбит/сек
Каналы : 6 каналов
Channel layout : L R C LFE Ls Rs
Частота : 48,0 КГц
Частота кадров : 31,250 кадров/сек (1536 SPF)
Метод сжатия : С потерями
Размер потока : 221 Мбайт (4%)
Заголовок : Dub
Язык : Russian
Service kind : Complete Main
Default : Да
Forced : Нет
Аудио #2
Идентификатор : 3
Формат : E-AC-3
Формат/Информация : Enhanced AC-3
Коммерческое название : Dolby Digital Plus
Идентификатор кодека : A_EAC3
Продолжительность : 1 ч. 20 м.
Вид битрейта : Постоянный
Битрейт : 640 Кбит/сек
Каналы : 6 каналов
Channel layout : L R C LFE Ls Rs
Частота : 48,0 КГц
Частота кадров : 31,250 кадров/сек (1536 SPF)
Метод сжатия : С потерями
Размер потока : 368 Мбайт (7%)
Заголовок : Original
Язык : English
Service kind : Complete Main
Default : Нет
Forced : Нет
Скриншоты: Все одноименные релизы в КлубеВремя раздачи: 24/7 (до 10-ти скачавших)
[Профиль] [ЛС]
Показать сообщения:    
Ответить на тему

Текущее время: 22-Фев 01:29

Часовой пояс: UTC ± 0



Вы не можете начинать темы
Вы не можете отвечать на сообщения
Вы не можете редактировать свои сообщения
Вы не можете удалять свои сообщения
Вы не можете голосовать в опросах
Вы не можете прикреплять файлы к сообщениям
Вы не можете скачивать файлы

[  Время выполнения: 0,030 сек  |  MySQL: 0,004 сек (12%) · 3 запр.  |  GZIP выкл  |  Память: 421,85 KB / 1,72 MB / 1,32 MB  |  Лимит: 19 19 19  ]