Итальянское ограбление: Последний рейд / The Last Ride of the Wolves (2022) WEB-DLRip [MVO]

Ответить на тему
 
Автор Сообщение

admin ®

Пол: Не указан

Стаж: 5 месяца

Сообщений: 10110

Создавать темы 30-Янв-2024 17:19

[Цитировать]

Итальянское ограбление: Последний рейд / The Last Ride of the Wolves (2022) WEB-DLRip- Производство: Италия, Нидерланды / Halal Amsterdam, Jolefilm
Жанр: драма, криминал
Режиссер: Альберто де Микеле
Актеры: Альберто де Микеле, Паскуаль де Микеле, Ангело Гарбин, Витторио Спиголон, Альберто Гарбин, Давидэ Томаси, Марко Заго
Описание:
После освобождения из тюрьмы бывалый мошенник и заядлый игрок Паскуале задумывается о том, как поскорее обеспечить старость себе и своим подельникам. Чтобы урвать огромный куш, Паскуале начинает планировать ограбление бронированного автомобиля, осуществляющего перевозку 12 миллионов евро наличными. Для организации своего последнего дела Паскуале воссоединяет старую банду и привлекает сына Альберто. Подготовка идет успешно, осталось лишь найти нужного человека в охранной компании. Без него точный маршрут передвижения бронированной машины не узнать. Вот только где взять крупную сумму, чтобы заплатить за столь конфиденциальную информацию?
Продолжительность: 01:21:14
Качество видео: WEB-DLRip
Перевод: Многоголосый профессиональный (OKKO )
Язык озвучки: Русский
Субтитры: Отсутствуют
Видео: XviD, 720x304, ~1797 Kbps
Аудио: AC-3, 6 ch, 384 Kbps

MediaInfo:

Общее
Полное имя : D:\NNM\Итальянское ограбление\Italyanskoe.ograblenie.Posledniy.reyd.2022.WEB-DLRip.ELEKTRI4KA.UNIONGANG.avi
Формат : AVI
Формат/Информация : Audio Video Interleave
Размер файла : 1,24 Гбайт
Продолжительность : 1 ч. 21 м.
Общий поток : 2 190 Кбит/сек
Программа кодирования : VirtualDubMod 1.5.10.3 (build 2550/release)
Библиотека кодирования : VirtualDubMod build 2550/release
Видео
Идентификатор : 0
Формат : MPEG-4 Visual
Профиль формата : Advanced Simple@L5
Настройки формата : BVOP1 / Custom Matrix
Параметр BVOP формата : 1
Параметр QPel формата : Нет
Параметр GMC формата : Без точки перехода
Параметр матрицы формата : Выборочная
Идентификатор кодека : XVID
Идентификатор кодека/Подсказка : XviD
Продолжительность : 1 ч. 21 м.
Битрейт : 1 797 Кбит/сек
Ширина : 720 пикселей
Высота : 304 пикселя
Соотношение сторон : 2,35:1
Частота кадров : 24,000 кадра/сек
Цветовое пространство : YUV
Субдискретизация насыщенности : 4:2:0
Битовая глубина : 8 бит
Тип развёртки : Прогрессивная
Метод сжатия : С потерями
Бит/(Пиксели*Кадры) : 0.342
Размер потока : 1,02 Гбайт (82%)
Библиотека кодирования : XviD 67
Аудио
Идентификатор : 1
Формат : AC-3
Формат/Информация : Audio Coding 3
Коммерческое название : Dolby Digital
Идентификатор кодека : 2000
Продолжительность : 1 ч. 21 м.
Вид битрейта : Постоянный
Битрейт : 384 Кбит/сек
Каналы : 6 каналов
Channel layout : L R C LFE Ls Rs
Частота : 48,0 КГц
Частота кадров : 31,250 кадров/сек (1536 SPF)
Метод сжатия : С потерями
Размер потока : 223 Мбайт (18%)
Выравнивание : Разделение по промежуткам
Продолжительность промежутка : 42 мс. (1,00 видеокадр)
Время предзагрузки промежутка : 500 мс.
Service kind : Complete Main
Скриншоты: Все одноименные релизы в КлубеВремя раздачи: 24/7 (до 10-ти скачавших)
[Профиль] [ЛС]
Показать сообщения:    
Ответить на тему

Текущее время: 28-Фев 21:36

Часовой пояс: UTC ± 0



Вы не можете начинать темы
Вы не можете отвечать на сообщения
Вы не можете редактировать свои сообщения
Вы не можете удалять свои сообщения
Вы не можете голосовать в опросах
Вы не можете прикреплять файлы к сообщениям
Вы не можете скачивать файлы

[  Время выполнения: 0,026 сек  |  MySQL: 0,003 сек (12%) · 3 запр.  |  GZIP выкл  |  Память: 422,29 KB / 1,72 MB / 1,32 MB  |  Лимит: 15 15 14  ]