Путешествие на край ночи / Journey to the End of the Night (2023) WEBRip [H.264/1080p-LQ] [MVO] [AD]

Ответить на тему
 
Автор Сообщение

admin ®

Пол: Не указан

Стаж: 5 месяца

Сообщений: 10110

Создавать темы 30-Янв-2024 17:19

[Цитировать]

Путешествие на край ночи / Journey to the End of the Night (2023) WEBRip [H.264/1080p-LQ]- Производство: США / VIDART
Жанр: фантастика
Режиссер: Экзистенциалист, Майкл Шимчик
Актеры: Джезраэль Лейва, Пэйтон Лоллар, Энтони Вроблески, Феликс Александр, Дэн Бивер, Коул Бизарри, Перри Чонг, Дерек Ст. Клэр Дентон, Владимир Диник, Эмилиано Гарсия
Описание:
"Путешествие на край ночи" представляет захватывающий фильм, разворачивающийся в мире, нарушенном загадочной атакой, лишившей страну электроэнергии. Полгода спустя после этой таинственной электромагнитной импульсной атаки (ЭМИ), которая перевернула мир с ног на голову, два солдата и гражданская лицо, понимая, что их мир находится на грани катастрофы, объединяются, чтобы спасти планету.
Всеобщий хаос, отсутствие связи с внешним миром и страх встречи с неизвестным противостоят им на пути. Однако, столкнувшись с неизведанными опасностями и разгадывая головоломки, связанные с ЭМИ атакой, они начинают раскрывать ужасающие тайны и обнаруживать, что атака была лишь началом глобальной угрозы. Сплотившись вместе, они сражаются за свою жизнь и будущее человечества, пытаясь проломиться через мрак и хаос к яркому свету надежды.
Продолжительность: 01:54:40
Качество видео: WEBRip (1080p-LQ)
Перевод: Многоголосый профессиональный (Синема УС)
Язык озвучки: Русский
Субтитры: Отсутствуют
Реклама: Присутствует баннер.
Видео: AVC/H.264, 1920x1080, ~5745 Kbps
Аудио: AC3, 2 ch, 384 Kbps

MediaInfo:

Общее
Полное имя : D:\NNM\Путешествие на край ночи\Journey.to.the.End.of.the.Night.2023.WEBRip.1080p-LQ.mkv
Формат : Matroska
Версия формата : Version 2
Размер файла : 5,01 Гбайт
Продолжительность : 1 ч. 54 м.
Режим общего битрейта : Постоянный
Общий поток : 6 253 Кбит/сек
Программа кодирования : libmatroska 1.4.1
Библиотека кодирования : SolveigMM Matroska Muxer Version 1.0.1904.23
Видео
Идентификатор : 1
Формат : AVC
Формат/Информация : Advanced Video Codec
Профиль формата : High@L4.1
Настройки формата : CABAC / 4 Ref Frames
Параметр CABAC формата : Да
Параметр RefFrames формата : 4 кадра
Идентификатор кодека : V_MPEG4/ISO/AVC
Продолжительность : 1 ч. 54 м.
Вид битрейта : Постоянный
Битрейт : 5 745 Кбит/сек
Номинальный битрейт : 7 000 Кбит/сек
Ширина : 1 920 пикселей
Высота : 1 080 пикселей
Соотношение сторон : 16:9
Режим частоты кадров : Постоянный
Частота кадров : 23,976 (24000/1001) кадра/сек
Стандарт вещания : Component
Цветовое пространство : YUV
Субдискретизация насыщенности : 4:2:0
Битовая глубина : 8 бит
Тип развёртки : Прогрессивная
Бит/(Пиксели*Кадры) : 0.116
Размер потока : 4,60 Гбайт (92%)
Библиотека кодирования : x264 core 155
Настройки программы : cabac=1 / ref=4 / deblock=1:0:0 / analyse=0x3:0x3 / me=dia / subme=1 / psy=1 / psy_rd=1.00:0.00 / mixed_ref=0 / me_range=16 / chroma_me=1 / trellis=0 / 8x8dct=1 / cqm=1 / deadzone=21,11 / fast_pskip=1 / chroma_qp_offset=0 / threads=34 / lookahead_threads=5 / sliced_threads=0 / slices=1 / nr=0 / decimate=1 / interlaced=0 / minigop=0 / stitchable=1 / constrained_intra=0 / bframes=0 / weightp=0 / keyint=240 / keyint_min=23 / scenecut=0 / intra_refresh=0 / rc_lookahead=0 / rc=cbr / mbtree=0 / bitrate=7000 / ratetol=1.0 / qcomp=0.60 / qpmin=1 / qpmax=69 / qpstep=4 / vbv_maxrate=7000 / vbv_bufsize=7000 / nal_hrd=cbr / filler=1 / ip_ratio=1.40 / aq=1:1.00
Default : Нет
Forced : Нет
Цветовой диапазон : Limited
Основные цвета : BT.709
Характеристики трансфера : BT.709
Коэффициенты матрицы : BT.709
Аудио
Идентификатор : 2
Формат : AC-3
Формат/Информация : Audio Coding 3
Коммерческое название : Dolby Digital
Идентификатор кодека : A_AC3
Продолжительность : 1 ч. 54 м.
Вид битрейта : Постоянный
Битрейт : 384 Кбит/сек
Каналы : 2 канала
Channel layout : L R
Частота : 48,0 КГц
Частота кадров : 31,250 кадров/сек (1536 SPF)
Метод сжатия : С потерями
Размер потока : 315 Мбайт (6%)
Язык : Russian
Service kind : Complete Main
Default : Нет
Forced : Нет
Скриншоты: Все одноименные релизы в КлубеВремя раздачи: 24/7 (до 10-ти скачавших)
[Профиль] [ЛС]
Показать сообщения:    
Ответить на тему

Текущее время: 28-Фев 23:27

Часовой пояс: UTC ± 0



Вы не можете начинать темы
Вы не можете отвечать на сообщения
Вы не можете редактировать свои сообщения
Вы не можете удалять свои сообщения
Вы не можете голосовать в опросах
Вы не можете прикреплять файлы к сообщениям
Вы не можете скачивать файлы

[  Время выполнения: 0,030 сек  |  MySQL: 0,003 сек (11%) · 3 запр.  |  GZIP выкл  |  Память: 422,29 KB / 1,72 MB / 1,32 MB  |  Лимит: 9 9 10  ]