Цепной пёс / Chien de la casse / Junkyard Dog (2023) WEB-DLRip [MVO]

Ответить на тему
 
Автор Сообщение

admin ®

Пол: Не указан

Стаж: 4 месяца 23 дня

Сообщений: 10110

Создавать темы 30-Янв-2024 17:19

[Цитировать]

Цепной пёс / Chien de la casse / Junkyard Dog (2023) WEB-DLRip - Производство: Франция / Insolence Productions, Centre national du cinéma et de l'image animée (CNC), Région Occitanie/Pyrénées-Méditerranée
Жанр: драма, комедия
Режиссер: Jean-Baptiste Durand
Продюсер: Анаис Бертран, Emilie Dubois, Паскалин Сайллант
Актеры: Антони Бажон, Рафаэль Кенар, Галатея Беллуджи, Доминик Реймон, Бернар Бланкан, Nathan Le Graciet, Мелани Мартинес, Mike Reilles, Mathieu Amilien, Evelina Pitti
Описание:
Дог и Миралес два друга детства, живут в маленькой деревушке на юге Франции и проводят свои дни ничего особо не делая. Чтобы убить время, Миралес безжалостно дразнит Дога. Но этим летом все по-другому: Дог встречает девушку Эльзу, и они влюбляются друг в друга. Ревность отталкивает Миралеса, но расстояние, возникшее между двумя друзьями, позволяет им расти и развивать свои собственные личности.
Релиз от: Rip by vitolinform
Продолжительность: 01:32:37
Качество видео: WEB-DLRip
Перевод: Многоголосый любительский (Синема УС)
Язык озвучки: русский, французский
Субтитры: отсутствуют
Видео: Xvid, 720х304, ~1864 Кbps
Аудио 1: AC3, 2 ch, 192 Kbps | Русский (MVO, Синема УС)
Аудио 2: AC3, 2 ch, 192 Kbps | Французский

MediaInfo:

General
Complete name : D:\Cepnoj.pyos.2023.WEB-DLRip.avi
Format : AVI
Format/Info : Audio Video Interleave
Format settings : BitmapInfoHeader / WaveFormatEx
File size : 1.46 GiB
Duration : 1 h 32 min
Overall bit rate : 2 262 kb/s
Frame rate : 25.000 FPS
Movie name : Цепной пёс / Chien de la casse (2023) WEB-DLRip
Director : Жан-Батист Дюран / Jean-Baptiste Durand
Genre : драма, комедия
Writing application : VirtualDubMod 1.5.10.2 (build 2542/release)
Original source form/Name : Художественный фильм
Copyright : Франция / Insolence Productions, Centre national du cinema et de l'image animee (CNC), Region Occitanie/Pyrenees-Mediterranee
Comment : Rip by vitolinform
Video
ID : 0
Format : MPEG-4 Visual
Format profile : Advanced Simple@L5
Format settings : BVOP1 / Custom Matrix
Format settings, BVOP : 1
Format settings, QPel : No
Format settings, GMC : No warppoints
Format settings, Matrix : Custom
Codec ID : XVID
Codec ID/Hint : XviD
Duration : 1 h 32 min
Bit rate : 1 864 kb/s
Width : 720 pixels
Height : 304 pixels
Display aspect ratio : 2.35:1
Frame rate : 25.000 FPS
Color space : YUV
Chroma subsampling : 4:2:0
Bit depth : 8 bits
Scan type : Progressive
Compression mode : Lossy
Bits/(Pixel*Frame) : 0.341
Stream size : 1.21 GiB (82%)
Writing library : XviD 73
Audio #1
ID : 1
Format : AC-3
Format/Info : Audio Coding 3
Commercial name : Dolby Digital
Codec ID : 2000
Duration : 1 h 32 min
Bit rate mode : Constant
Bit rate : 192 kb/s
Channel(s) : 2 channels
Channel layout : L R
Sampling rate : 48.0 kHz
Frame rate : 31.250 FPS (1536 SPF)
Compression mode : Lossy
Stream size : 127 MiB (8%)
Alignment : Split across interleaves
Interleave, duration : 40 ms (1.00 video frame)
Interleave, preload duration : 500 ms
Title : Russian (MVO, Синема УС)
Service kind : Complete Main
Audio #2
ID : 2
Format : AC-3
Format/Info : Audio Coding 3
Commercial name : Dolby Digital
Codec ID : 2000
Duration : 1 h 32 min
Bit rate mode : Constant
Bit rate : 192 kb/s
Channel(s) : 2 channels
Channel layout : L R
Sampling rate : 48.0 kHz
Frame rate : 31.250 FPS (1536 SPF)
Compression mode : Lossy
Stream size : 127 MiB (8%)
Alignment : Split across interleaves
Interleave, duration : 40 ms (1.00 video frame)
Interleave, preload duration : 500 ms
Title : French
Service kind : Complete Main
Скриншоты:
Все одноименные релизы в КлубеВремя раздачи: как минимум до появления первых 3-5 скачавших, 24/7 (мультитрекерная раздача)
[Профиль] [ЛС]
Показать сообщения:    
Ответить на тему

Текущее время: 21-Фев 23:52

Часовой пояс: UTC ± 0



Вы не можете начинать темы
Вы не можете отвечать на сообщения
Вы не можете редактировать свои сообщения
Вы не можете удалять свои сообщения
Вы не можете голосовать в опросах
Вы не можете прикреплять файлы к сообщениям
Вы не можете скачивать файлы

[  Время выполнения: 0,037 сек  |  MySQL: 0,004 сек (10%) · 3 запр.  |  GZIP выкл  |  Память: 421,85 KB / 1,73 MB / 1,34 MB  |  Лимит: 9 9 10  ]