Путешествие на край ночи / Journey to the End of the Night (2023) WEBRip [MVO] [AD]

Ответить на тему
 
Автор Сообщение

admin ®

Пол: Не указан

Стаж: 4 месяца 23 дня

Сообщений: 10110

Создавать темы 30-Янв-2024 17:19

[Цитировать]

Путешествие на край ночи / Journey to the End of the Night (2023) WEBRip - Производство: США / VIDART
Жанр: фантастика
Режиссер: Экзистенциалист, Майкл Шимчик
Актеры: Джезраэль Лейва, Пэйтон Лоллар, Энтони Вроблески, Феликс Александр, Дэн Бивер, Коул Бизарри, Перри Чонг, Дерек Ст. Клэр Дентон, Владимир Диник, Эмилиано Гарсия
Описание:
"Путешествие на край ночи" представляет захватывающий фильм, разворачивающийся в мире, нарушенном загадочной атакой, лишившей страну электроэнергии. Полгода спустя после этой таинственной электромагнитной импульсной атаки (ЭМИ), которая перевернула мир с ног на голову, два солдата и гражданская лицо, понимая, что их мир находится на грани катастрофы, объединяются, чтобы спасти планету.
Всеобщий хаос, отсутствие связи с внешним миром и страх встречи с неизвестным противостоят им на пути. Однако, столкнувшись с неизведанными опасностями и разгадывая головоломки, связанные с ЭМИ атакой, они начинают раскрывать ужасающие тайны и обнаруживать, что атака была лишь началом глобальной угрозы. Сплотившись вместе, они сражаются за свою жизнь и будущее человечества, пытаясь проломиться через мрак и хаос к яркому свету надежды.
Продолжительность: 01:54:40
Качество видео: WEBRip
Перевод: Многоголосый профессиональный (Синема УС)
Язык озвучки: Русский
Субтитры: Отсутствуют
Реклама: Присутствует баннер.
Видео: XviD, 720x408, ~1620 Kbps
Аудио: AC-3, 2 ch, 192 Kbps

MediaInfo:

Общее
Полное имя : D:\NNM\Путешествие на край ночи\Journey.to.the.End.of.the.Night.2023.WEBRip.avi
Формат : AVI
Формат/Информация : Audio Video Interleave
Размер файла : 1,46 Гбайт
Продолжительность : 1 ч. 54 м.
Общий поток : 1 821 Кбит/сек
Программа кодирования : VirtualDubMod 1.5.10.3 | www.virtualdub-fr.org || (build 2550/release)
Библиотека кодирования : VirtualDubMod build 2550/release
Видео
Идентификатор : 0
Формат : MPEG-4 Visual
Профиль формата : Advanced Simple@L5
Настройки формата : BVOP1 / Custom Matrix
Параметр BVOP формата : 1
Параметр QPel формата : Нет
Параметр GMC формата : Без точки перехода
Параметр матрицы формата : Выборочная
Идентификатор кодека : XVID
Идентификатор кодека/Подсказка : XviD
Продолжительность : 1 ч. 54 м.
Битрейт : 1 620 Кбит/сек
Ширина : 720 пикселей
Высота : 408 пикселей
Соотношение сторон : 16:9
Частота кадров : 23,976 (24000/1001) кадра/сек
Цветовое пространство : YUV
Субдискретизация насыщенности : 4:2:0
Битовая глубина : 8 бит
Тип развёртки : Прогрессивная
Метод сжатия : С потерями
Бит/(Пиксели*Кадры) : 0.230
Размер потока : 1,30 Гбайт (89%)
Библиотека кодирования : XviD 73
Аудио
Идентификатор : 1
Формат : AC-3
Формат/Информация : Audio Coding 3
Коммерческое название : Dolby Digital
Идентификатор кодека : 2000
Продолжительность : 1 ч. 54 м.
Вид битрейта : Постоянный
Битрейт : 192 Кбит/сек
Каналы : 2 канала
Channel layout : L R
Частота : 48,0 КГц
Частота кадров : 31,250 кадров/сек (1536 SPF)
Метод сжатия : С потерями
Размер потока : 157 Мбайт (11%)
Выравнивание : Разделение по промежуткам
Продолжительность промежутка : 42 мс. (1,00 видеокадр)
Время предзагрузки промежутка : 500 мс.
Service kind : Complete Main
Скриншоты: Все одноименные релизы в КлубеВремя раздачи: 24/7 (до 10-ти скачавших)
[Профиль] [ЛС]
Показать сообщения:    
Ответить на тему

Текущее время: 22-Фев 00:37

Часовой пояс: UTC ± 0



Вы не можете начинать темы
Вы не можете отвечать на сообщения
Вы не можете редактировать свои сообщения
Вы не можете удалять свои сообщения
Вы не можете голосовать в опросах
Вы не можете прикреплять файлы к сообщениям
Вы не можете скачивать файлы

[  Время выполнения: 0,030 сек  |  MySQL: 0,004 сек (12%) · 3 запр.  |  GZIP выкл  |  Память: 421,85 KB / 1,72 MB / 1,32 MB  |  Лимит: 17 17 15  ]