Не буди во мне киллера / Les complices / Killing Blues (2023) WEBRip [H.264/1080p]

Ответить на тему
 
Автор Сообщение

admin ®

Пол: Не указан

Стаж: 5 месяца 1 день

Сообщений: 10110

Создавать темы 30-Янв-2024 17:19

[Цитировать]

Не буди во мне киллера / Les complices / Killing Blues (2023) WEBRip [H.264/1080p]- Производство: Франция, Бельгия / Firelight, Artémis Productions, SND Groupe M6
Жанр: комедия
Режиссер: Сесилия Руа
Продюсер: Стэн Колле, Франк Метр, Мишель Хазанавичус
Актеры: Франсуа Дамиенс, Уилльям Лебхил, Лора Фельпен, Ванесса Паради, Брюно Подалидес, Люсиль де ла Морена, Алисия Хава, Жантиль Каме
Описание:
Беспощадный киллер во время одного из заданий внезапно теряет сознание. И теперь его мутит от одного вида крови. Рабочий график, расписанный на год вперед, летит ко всем чертям. Босс и жена в ярости — мужчина должен зарабатывать. На помощь внезапно приходят соседи. Им в колл-центр как раз требуются добрые и отзывчивые люди, способные убедить любого клиента.
Возраст: 16+ (зрителям, достигшим 16 лет)
Релиз от: karfagen1975|Soft-Torrent - торрент игры программы фильмы книги скачать
Продолжительность: 01:37:25
Качество видео: WEBRip
Перевод: Дублированный (Pride Production)
Язык озвучки: Русский, Французский
Субтитры: Отсутствуют
Видео: AVC/H.264, 1920x800, ~5120 Kbps
Аудио 1: AAC, 6 ch, 512 Kbps - Русский (DUB)
Аудио 2: AAC, 6 ch, 512 Kbps - Французский

MediaInfo:

General
Unique ID : 139515361412786565268596451222086589168 (0x68F5AE64BDC1D4E4BC0F64C178219AF0)
Complete name : E:\VIDEO\Les complices (2023) WEB-DL 1080p.mkv
Format : Matroska
Format version : Version 4
File size : 4.18 GiB
Duration : 1 h 37 min
Overall bit rate : 6 143 kb/s
Encoded date : UTC 2023-08-11 21:49:19
Writing application : mkvmerge v75.0.0 ('Goliath') 64-bit
Writing library : libebml v1.4.4 + libmatroska v1.7.1
Video
ID : 1
Format : AVC
Format/Info : Advanced Video Codec
Format profile : High@L4
Format settings : CABAC / 4 Ref Frames
Format settings, CABAC : Yes
Format settings, Reference frames : 4 frames
Codec ID : V_MPEG4/ISO/AVC
Duration : 1 h 37 min
Bit rate : 5 120 kb/s
Width : 1 920 pixels
Height : 800 pixels
Display aspect ratio : 2.40:1
Frame rate mode : Constant
Frame rate : 24.000 FPS
Color space : YUV
Chroma subsampling : 4:2:0
Bit depth : 8 bits
Scan type : Progressive
Bits/(Pixel*Frame) : 0.139
Stream size : 3.48 GiB (83%)
Title : Не буди во мне киллера (2023) WEB-DL 1080p
Writing library : x264 core 152 r2854 e9a5903
Encoding settings : cabac=1 / ref=3 / deblock=1:0:0 / analyse=0x3:0x113 / me=hex / subme=7 / psy=1 / psy_rd=1.00:0.00 / mixed_ref=1 / me_range=16 / chroma_me=1 / trellis=1 / 8x8dct=1 / cqm=0 / deadzone=21,11 / fast_pskip=1 / chroma_qp_offset=-2 / threads=25 / lookahead_threads=4 / sliced_threads=0 / nr=0 / decimate=1 / interlaced=0 / bluray_compat=0 / constrained_intra=0 / bframes=6 / b_pyramid=2 / b_adapt=1 / b_bias=0 / direct=1 / weightb=1 / open_gop=0 / weightp=2 / keyint=48 / keyint_min=25 / scenecut=0 / intra_refresh=0 / rc_lookahead=40 / rc=2pass / mbtree=1 / bitrate=5120 / ratetol=1.0 / qcomp=0.60 / qpmin=0 / qpmax=69 / qpstep=4 / cplxblur=20.0 / qblur=0.5 / vbv_maxrate=7680 / vbv_bufsize=20480 / nal_hrd=none / filler=0 / ip_ratio=1.40 / aq=1:1.00
Language : French
Default : Yes
Forced : No
Audio #1
ID : 2
Format : AAC LC
Format/Info : Advanced Audio Codec Low Complexity
Codec ID : A_AAC-2
Duration : 1 h 37 min
Bit rate : 512 kb/s
Channel(s) : 6 channels
Channel layout : C L R Ls Rs LFE
Sampling rate : 48.0 kHz
Frame rate : 46.875 FPS (1024 SPF)
Compression mode : Lossy
Stream size : 357 MiB (8%)
Title : DUB (Pride Production)
Language : Russian
Default : No
Forced : No
Audio #2
ID : 3
Format : AAC LC
Format/Info : Advanced Audio Codec Low Complexity
Codec ID : A_AAC-2
Duration : 1 h 37 min
Bit rate : 512 kb/s
Channel(s) : 6 channels
Channel layout : C L R Ls Rs LFE
Sampling rate : 48.0 kHz
Frame rate : 46.875 FPS (1024 SPF)
Compression mode : Lossy
Stream size : 357 MiB (8%)
Language : French
Default : No
Forced : No
Скриншоты:
Все одноименные релизы в КлубеВремя раздачи: 24/7 (круглосуточно) (минимум до появления первых 3-5 скачавших)
[Профиль] [ЛС]
Показать сообщения:    
Ответить на тему

Текущее время: 29-Фев 11:57

Часовой пояс: UTC ± 0



Вы не можете начинать темы
Вы не можете отвечать на сообщения
Вы не можете редактировать свои сообщения
Вы не можете удалять свои сообщения
Вы не можете голосовать в опросах
Вы не можете прикреплять файлы к сообщениям
Вы не можете скачивать файлы

[  Время выполнения: 0,031 сек  |  MySQL: 0,004 сек (13%) · 3 запр.  |  GZIP выкл  |  Память: 422,29 KB / 1,72 MB / 1,32 MB  |  Лимит: 6 8 9  ]