Машина / The Machine (2023) BDRemux [H.264/1080p]

Ответить на тему
 
Автор Сообщение

admin ®

Пол: Не указан

Стаж: 4 месяца 23 дня

Сообщений: 10110

Создавать темы 30-Янв-2024 17:18

[Цитировать]

Машина / The Machine (2023) BDRemux [H.264/1080p]- Производство: США, Balkanic Media, Shaken Not Stirred
Жанр: боевик, комедия
Режиссер: Питер Атенсио
Продюсер: Питер Атенсио, Кейл Бойтер,
Актеры: Берт Крайшер, Марк Хэмилл, Джимми Татро, Айва Бабич, Роберт Мазер, Стефани Курцуба, Мартин Форд, Джесс Габор, , Никола Джуричко
Описание: В юности главный герой Берт волею случая и собственного раздолбайства оказался в России 1990-х годов, где связался с местными бандитами. Вместо учебы в России Берт в основном пил и путался с сомнительными личностями, результатом чего стало его участие в преступлении. Спустя 20 лет герой вновь сталкивается со своим бурным прошлым, когда Берта и его отца похищают люди, которых он обманул в России во времена своего студенчества. «Машина» — криминальная комедия по мотивам популярного стендапа комика Берта Крайшера.
Рейтинг MPAA: R (Лицам до 17 обязательно присутствие взрослых)
Релиз от: Селезень
Продолжительность: 01:52:23
Качество видео: BDRemux 1080p
Перевод: Профессиональный многоголосый (Лицензия, HDRezka, Jaskier)
Язык озвучки: Русский, Украинский, Английский
Субтитры: Русские (2x Forced, Full), Украинские (Forced, Full), Английские (Forced, Full, SDH)
Видео: AVC/H.264, 1920x1080, 27.7 Mbps, 23.976 fps
Аудио 1: AC-3, 6 ch, 384 Kbps | Русский MVO License
Аудио 2: AC-3, 6 ch, 384 Kbps | Русский MVO HDRezka
Аудио 3: AC-3, 6 ch, 448 Kbps | Русский MVO Jaskier
Аудио 4: AC-3, 6 ch, 384 Kbps | Украинский Dub License
Аудио 5: DTS-HD MA, 6 ch, 2235 Kbps | Английский

Mediainfo:

General
Unique ID : 254423379292820503457237006742833771207 (0xBF682914C5EE8FA6D090C2B1CDDEB2C7)
Complete name : /Volumes/Promise Pegasus/The.Machine.2023.BDRemux.1080p.mkv
Format : Matroska
Format version : Version 4
File size : 24.8 GiB
Duration : 1 h 52 min
Overall bit rate mode : Variable
Overall bit rate : 31.5 Mb/s
Frame rate : 23.976 FPS
Movie name : The Machine 2023 BDRemux 1080p
Encoded date : 2023-08-11 23:31:46 UTC
Writing application : mkvmerge v73.0.0 ('25 or 6 to 4') 64-bit
Writing library : libebml v1.4.4 + libmatroska v1.7.1
Cover : Yes
Attachments : cover.jpg / small_cover.jpg
Video
ID : 1
Format : AVC
Format/Info : Advanced Video Codec
Format profile : High@L4.1
Format settings : CABAC / 2 Ref Frames
Format settings, CABAC : Yes
Format settings, Reference frames : 2 frames
Format settings, GOP : M=1, N=10
Codec ID : V_MPEG4/ISO/AVC
Duration : 1 h 52 min
Bit rate mode : Variable
Bit rate : 27.7 Mb/s
Width : 1 920 pixels
Height : 1 080 pixels
Display aspect ratio : 16:9
Frame rate mode : Constant
Frame rate : 23.976 (24000/1001) FPS
Color space : YUV
Chroma subsampling : 4:2:0
Bit depth : 8 bits
Scan type : Progressive
Bits/(Pixel*Frame) : 0.557
Stream size : 21.7 GiB (88%)
Language : English
Default : Yes
Forced : No
Audio #1
ID : 2
Format : AC-3
Format/Info : Audio Coding 3
Commercial name : Dolby Digital
Codec ID : A_AC3
Duration : 1 h 52 min
Bit rate mode : Constant
Bit rate : 384 kb/s
Channel(s) : 6 channels
Channel layout : L R C LFE Ls Rs
Sampling rate : 48.0 kHz
Frame rate : 31.250 FPS (1536 SPF)
Compression mode : Lossy
Stream size : 309 MiB (1%)
Title : Russian MVO License
Language : Russian
Service kind : Complete Main
Default : Yes
Forced : No
Audio #2
ID : 3
Format : AC-3
Format/Info : Audio Coding 3
Commercial name : Dolby Digital
Codec ID : A_AC3
Duration : 1 h 52 min
Bit rate mode : Constant
Bit rate : 384 kb/s
Channel(s) : 6 channels
Channel layout : L R C LFE Ls Rs
Sampling rate : 48.0 kHz
Frame rate : 31.250 FPS (1536 SPF)
Compression mode : Lossy
Stream size : 309 MiB (1%)
Title : Russian MVO Jaskier
Language : Russian
Service kind : Complete Main
Default : No
Forced : No
Audio #3
ID : 4
Format : AC-3
Format/Info : Audio Coding 3
Commercial name : Dolby Digital
Codec ID : A_AC3
Duration : 1 h 52 min
Bit rate mode : Constant
Bit rate : 448 kb/s
Channel(s) : 6 channels
Channel layout : L R C LFE Ls Rs
Sampling rate : 48.0 kHz
Frame rate : 31.250 FPS (1536 SPF)
Compression mode : Lossy
Stream size : 360 MiB (1%)
Title : Russian MVO HDRezka Studio
Language : Russian
Service kind : Complete Main
Default : No
Forced : No
Audio #4
ID : 5
Format : AC-3
Format/Info : Audio Coding 3
Commercial name : Dolby Digital
Codec ID : A_AC3
Duration : 1 h 52 min
Bit rate mode : Constant
Bit rate : 384 kb/s
Channel(s) : 6 channels
Channel layout : L R C LFE Ls Rs
Sampling rate : 48.0 kHz
Frame rate : 31.250 FPS (1536 SPF)
Compression mode : Lossy
Stream size : 309 MiB (1%)
Title : Ukrainian Dub License
Language : Ukrainian
Service kind : Complete Main
Default : No
Forced : No
Audio #5
ID : 6
Format : DTS XLL
Format/Info : Digital Theater Systems
Commercial name : DTS-HD Master Audio
Codec ID : A_DTS
Duration : 1 h 52 min
Bit rate mode : Variable
Bit rate : 2 235 kb/s
Channel(s) : 6 channels
Channel layout : C L R Ls Rs LFE
Sampling rate : 48.0 kHz
Frame rate : 93.750 FPS (512 SPF)
Bit depth : 16 bits
Compression mode : Lossless
Stream size : 1.75 GiB (7%)
Title : English Original
Language : English
Default : No
Forced : No
Text #1
ID : 7
Format : UTF-8
Codec ID : S_TEXT/UTF8
Codec ID/Info : UTF-8 Plain Text
Duration : 1 h 51 min
Bit rate : 1 b/s
Frame rate : 0.004 FPS
Count of elements : 28
Stream size : 1.07 KiB (0%)
Title : Russian forced vol.1
Language : Russian
Default : Yes
Forced : No
Text #2
ID : 8
Format : UTF-8
Codec ID : S_TEXT/UTF8
Codec ID/Info : UTF-8 Plain Text
Duration : 1 h 44 min
Bit rate : 3 b/s
Frame rate : 0.006 FPS
Count of elements : 36
Stream size : 2.48 KiB (0%)
Title : Russian forced vol.2
Language : Russian
Default : No
Forced : No
Text #3
ID : 9
Format : UTF-8
Codec ID : S_TEXT/UTF8
Codec ID/Info : UTF-8 Plain Text
Duration : 1 h 51 min
Bit rate : 100 b/s
Frame rate : 0.281 FPS
Count of elements : 1884
Stream size : 82.1 KiB (0%)
Title : Russian full
Language : Russian
Default : No
Forced : No
Text #4
ID : 10
Format : UTF-8
Codec ID : S_TEXT/UTF8
Codec ID/Info : UTF-8 Plain Text
Duration : 1 h 50 min
Bit rate : 3 b/s
Frame rate : 0.010 FPS
Count of elements : 64
Stream size : 2.66 KiB (0%)
Title : Ukrainian forced
Language : Ukrainian
Default : No
Forced : No
Text #5
ID : 11
Format : UTF-8
Codec ID : S_TEXT/UTF8
Codec ID/Info : UTF-8 Plain Text
Duration : 1 h 51 min
Bit rate : 101 b/s
Frame rate : 0.281 FPS
Count of elements : 1884
Stream size : 83.2 KiB (0%)
Title : Ukrainian full
Language : Ukrainian
Default : No
Forced : No
Text #6
ID : 12
Format : UTF-8
Codec ID : S_TEXT/UTF8
Codec ID/Info : UTF-8 Plain Text
Duration : 1 h 36 min
Bit rate : 1 b/s
Frame rate : 0.007 FPS
Count of elements : 41
Stream size : 1 005 Bytes (0%)
Title : English forced
Language : English
Default : No
Forced : No
Text #7
ID : 13
Format : UTF-8
Codec ID : S_TEXT/UTF8
Codec ID/Info : UTF-8 Plain Text
Duration : 1 h 46 min
Bit rate : 76 b/s
Frame rate : 0.304 FPS
Count of elements : 1949
Stream size : 60.3 KiB (0%)
Title : English full
Language : English
Default : No
Forced : No
Text #8
ID : 14
Format : UTF-8
Codec ID : S_TEXT/UTF8
Codec ID/Info : UTF-8 Plain Text
Duration : 1 h 48 min
Bit rate : 85 b/s
Frame rate : 0.333 FPS
Count of elements : 2165
Stream size : 68.1 KiB (0%)
Title : English SDH
Language : English
Default : No
Forced : No
Menu
00:00:00.000 : en:Глава 01
00:04:26.141 : en:Глава 02
00:09:32.030 : en:Глава 03
00:14:27.366 : en:Глава 04
00:19:11.525 : en:Глава 05
00:25:28.026 : en:Глава 06
00:30:57.189 : en:Глава 07
00:36:34.734 : en:Глава 08
00:42:12.655 : en:Глава 09
00:53:41.343 : en:Глава 10
01:01:37.360 : en:Глава 11
01:05:53.366 : en:Глава 12
01:16:47.311 : en:Глава 13
01:22:28.193 : en:Глава 14
01:37:28.801 : en:Глава 15
01:43:38.754 : en:Глава 16
01:46:08.362 : en:Глава 17
Скриншоты:
Все одноименные релизы в КлубеВремя раздачи: 24/7 (круглосуточно) (до появления первых 3-5 скачавших)
[Профиль] [ЛС]
Показать сообщения:    
Ответить на тему

Текущее время: 22-Фев 01:47

Часовой пояс: UTC ± 0



Вы не можете начинать темы
Вы не можете отвечать на сообщения
Вы не можете редактировать свои сообщения
Вы не можете удалять свои сообщения
Вы не можете голосовать в опросах
Вы не можете прикреплять файлы к сообщениям
Вы не можете скачивать файлы

[  Время выполнения: 0,047 сек  |  MySQL: 0,003 сек (6%) · 3 запр.  |  GZIP выкл  |  Память: 421,85 KB / 1,77 MB / 1,39 MB  |  Лимит: 9 11 15  ]