Больше, чем люди / Simulant (2023) BDRip [H.264/1080p-LQ]

Ответить на тему
 
Автор Сообщение

admin ®

Пол: Не указан

Стаж: 5 месяца 1 день

Сообщений: 10110

Создавать темы 30-Янв-2024 17:18

[Цитировать]

Больше, чем люди / Simulant (2023) BDRip [H.264/1080p-LQ]- Производство: Канада / Myriad Pictures Inc., Three Point Capital, Vertical Entertainment, Wango Films
Жанр: фантастика, триллер
Режиссер: Эйприл Маллен
Актеры: Робби Амелл, Джордана Брюстер, Симу Лю, Сэм Уортингтон, Алисия Санс, Мэйко Нгуйен, Маса Лиждек, Кристин Л. Нгуйен, Эммануэль Кабонго, Саманта Гелт, Конрад Коутс
Описание:
В недалеком будущем человечество научилось справляться со страхом потери близких благодаря изобретению особых андроидов, которые могут принимать облик любого человека. Пережив смерть супруга, Фэй решает воспользоваться этим благом цивилизации. Однако в поведении ее андроида что-то не так — это замечает специальный агент по надзору за интеллектом машин. Кажется, искусственный разум выходит за пределы изученной области. Неужели робот действительно жаждет стать человеком и завоевать сердце Фэй? «Больше, чем люди» — научно-фантастический триллер c Джорданой Брюстер и Сэмом Уортингтоном.
Возраст: 16+ (зрителям, достигшим 16 лет)
Релиз от: LORDKILL
Продолжительность: 01:36:00
Качество видео: BDRip 1080p
Перевод: Дублированный (Мосфильм-Мастер)
Язык озвучки: Русский
Субтитры: Русские
Видео: AVC/H.264, 1920x800, ~4500 kbps
Аудио: AC3, 6 ch, 384 kbps - Русский

Mediainfo:

x264 info: frame I:912   Avg QP:17.95  size:123735
x264 info: frame P:28587 Avg QP:19.64 size: 42297
x264 info: frame B:108604 Avg QP:19.90 size: 17644
x264 info: consecutive B-frames: 2.0% 3.5% 6.7% 8.2% 15.1% 53.5% 6.9% 1.0% 1.3% 1.0% 0.8%
General
Unique ID : 57363144094390427242995877585499864413 (0x2B27BD5C6D0D772FF7073E2442E63D5D)
Complete name : D:\РЕМУКС\Больше, чем люди (2023).mkv
Format : Matroska
Format version : Version 4
File size : 3.27 GiB
Duration : 1 h 36 min
Overall bit rate : 4 882 kb/s
Frame rate : 23.976 FPS
Movie name : Больше, чем люди / Simulant (2023) - #LORDKILL#
Encoded date : 2023-08-12 03:53:31 UTC
Writing application : mkvmerge v32.0.0 ('Astral Progressions') 64-bit
Writing library : libebml v1.3.7 + libmatroska v1.5.0
Video
ID : 1
Format : AVC
Format/Info : Advanced Video Codec
Format profile : High@L4.1
Format settings : CABAC / 5 Ref Frames
Format settings, CABAC : Yes
Format settings, Reference : 5 frames
Codec ID : V_MPEG4/ISO/AVC
Duration : 1 h 36 min
Bit rate : 4 500 kb/s
Width : 1 920 pixels
Height : 800 pixels
Display aspect ratio : 2.40:1
Frame rate mode : Constant
Frame rate : 23.976 (24000/1001) FPS
Color space : YUV
Chroma subsampling : 4:2:0
Bit depth : 8 bits
Scan type : Progressive
Bits/(Pixel*Frame) : 0.122
Stream size : 3.02 GiB (92%)
Writing library : x264 core 163 r3060 5db6aa6
Encoding settings : cabac=1 / ref=5 / deblock=1:-3:-3 / analyse=0x3:0x113 / me=umh / subme=10 / psy=1 / psy_rd=1.00:0.25 / mixed_ref=1 / me_range=32 / chroma_me=1 / trellis=2 / 8x8dct=1 / cqm=0 / deadzone=6,6 / fast_pskip=0 / chroma_qp_offset=-4 / threads=17 / lookahead_threads=4 / sliced_threads=0 / nr=0 / decimate=0 / interlaced=0 / bluray_compat=0 / constrained_intra=0 / bframes=10 / b_pyramid=2 / b_adapt=2 / b_bias=0 / direct=3 / weightb=1 / open_gop=0 / weightp=2 / keyint=240 / keyint_min=24 / scenecut=40 / intra_refresh=0 / rc=2pass / mbtree=0 / bitrate=4500 / ratetol=1.0 / qcomp=0.80 / qpmin=0 / qpmax=69 / qpstep=4 / cplxblur=20.0 / qblur=0.5 / ip_ratio=1.10 / pb_ratio=1.10 / aq=1:0.50
Language : English
Default : Yes
Forced : No
Audio
ID : 2
Format : AC-3
Format/Info : Audio Coding 3
Commercial name : Dolby Digital
Codec ID : A_AC3
Duration : 1 h 35 min
Bit rate mode : Constant
Bit rate : 384 kb/s
Channel(s) : 6 channels
Channel layout : L R C LFE Ls Rs
Sampling rate : 48.0 kHz
Frame rate : 31.250 FPS (1536 SPF)
Compression mode : Lossy
Stream size : 263 MiB (8%)
Title : Дубляж (Мосфильм-Мастер)
Language : Russian
Service kind : Complete Main
Default : Yes
Forced : No
Text
ID : 3
Format : UTF-8
Codec ID : S_TEXT/UTF8
Codec ID/Info : UTF-8 Plain Text
Duration : 1 h 32 min
Bit rate : 82 b/s
Frame rate : 0.195 FPS
Count of elements : 1089
Stream size : 56.4 KiB (0%)
Title : Full
Language : Russian
Default : Yes
Forced : No
Menu
00:00:00.000 : Chapter 01
00:10:38.763 : Chapter 02
00:19:28.459 : Chapter 03
00:30:12.853 : Chapter 04
00:39:37.375 : Chapter 05
00:50:36.075 : Chapter 06
00:59:48.168 : Chapter 07
01:10:57.502 : Chapter 08
01:21:20.751 : Chapter 09
01:31:20.475 : Chapter 10
Скриншоты:
Все одноименные релизы в КлубеВремя раздачи: 24/7 (до появления первых 10 скачавших)
[Профиль] [ЛС]
Показать сообщения:    
Ответить на тему

Текущее время: 29-Фев 13:11

Часовой пояс: UTC ± 0



Вы не можете начинать темы
Вы не можете отвечать на сообщения
Вы не можете редактировать свои сообщения
Вы не можете удалять свои сообщения
Вы не можете голосовать в опросах
Вы не можете прикреплять файлы к сообщениям
Вы не можете скачивать файлы

[  Время выполнения: 0,044 сек  |  MySQL: 0,002 сек (5%) · 3 запр.  |  GZIP выкл  |  Память: 422,29 KB / 1,74 MB / 1,34 MB  |  Лимит: 14 15 16  ]