Остров / The Island (2023) WEB-DLRip [H.264] [MVO]

Ответить на тему
 
Автор Сообщение

admin ®

Пол: Не указан

Стаж: 6 месяца 22 дня

Сообщений: 11520

Создавать темы 30-Янв-2024 17:18

[Цитировать]

Остров / The Island (2023) WEB-DLRip - Производство: Сент-Китс и Невис / MSR Media
Жанр: боевик, триллер
Режиссер: Шон Пол Пиччинино
Продюсер: Филиппе Мартинес, Ли Бисли, Каринн Бер
Актеры: Майкл Джей Уайт, Джиллиан Уайт, Джексон Рэтбоун, Эдоардо Коста, Уэйн Энтони Гордон, Дональд Брукс, Эстер Брукс, Кишорн Чарльз, Фрэнк Корби, Уинстон Крук
Описание:
Когда убивают его брата, офицер полиции Лос-Анджелеса Марк (Майкл Джей Уайт) покидает город, чтобы вернуться на остров, на котором он вырос. В поисках ответов и, в конечном счете, мести, он вскоре оказывается втянутым в кровавую битву с коррумпированным магнатом, захватившим райский остров.
Релиз от: Rip by vitolinform
Продолжительность: 01:32:57
Качество видео: WEB-DLRip
Перевод: Многоголосый профессиональный (HDRezka Studio), многоголосый профессиональный (HDRezka Studio | 18+)
Язык озвучки: русский, английский
Субтитры: английские (full, SDH), русские (forced)
Видео: AVC/H.264, 1024x426, ~2061 Kbps
Аудио 1: AC3, 6 ch, 448 Кbps | Русский (MVO, HDRezka Studio)
Аудио 2: AC3, 6 ch, 448 Кbps | Русский (MVO, HDRezka Studio | 18+)
Аудио 3: AC3, 6 ch, 448 Кbps | Английский

MediaInfo:

raw [info]: 1024x426p 1:1 @ 24000/1001 fps (cfr)
x264 [info]: using SAR=1/1
x264 [info]: using cpu capabilities: MMX2 SSE2Fast SSSE3 SSE4.2 AVX FMA3 BMI2 AVX2
x264 [info]: profile High, level 4.1, 4:2:0, 8-bit
x264 [info]: frame I:1204 Avg QP:16.47 size: 61657
x264 [info]: frame P:32329 Avg QP:18.05 size: 23159
x264 [info]: frame B:100176 Avg QP:20.72 size: 5892
x264 [info]: consecutive B-frames: 3.1% 2.9% 8.1% 39.4% 15.5% 23.5% 4.0% 2.2% 0.7% 0.2% 0.4%
x264 [info]: mb I I16..4: 6.3% 74.9% 18.8%
x264 [info]: mb P I16..4: 1.0% 11.6% 1.4% P16..4: 36.3% 27.6% 15.6% 0.0% 0.0% skip: 6.5%
x264 [info]: mb B I16..4: 0.1% 0.6% 0.1% B16..8: 38.2% 11.2% 3.4% direct: 5.1% skip:41.4% L0:41.6% L1:45.4% BI:12.9%
x264 [info]: 8x8 transform intra:81.0% inter:59.0%
x264 [info]: coded y,uvDC,uvAC intra: 88.8% 89.7% 76.9% inter: 19.7% 25.6% 17.1%
x264 [info]: i16 v,h,dc,p: 28% 16% 7% 48%
x264 [info]: i8 v,h,dc,ddl,ddr,vr,hd,vl,hu: 13% 11% 10% 8% 11% 12% 11% 11% 13%
x264 [info]: i4 v,h,dc,ddl,ddr,vr,hd,vl,hu: 14% 9% 4% 9% 14% 14% 13% 11% 12%
x264 [info]: i8c dc,h,v,p: 50% 20% 16% 15%
x264 [info]: Weighted P-Frames: Y:3.3% UV:1.3%
x264 [info]: ref P L0: 53.0% 12.0% 14.5% 4.6% 4.2% 2.5% 2.4% 1.2% 1.2% 0.8% 0.9% 0.6% 0.7% 0.5% 0.6% 0.4%
x264 [info]: ref B L0: 75.1% 10.8% 4.7% 2.3% 1.8% 1.3% 1.0% 0.7% 0.5% 0.5% 0.4% 0.4% 0.3% 0.2% 0.1%
x264 [info]: ref B L1: 94.6% 5.4%
x264 [info]: kb/s:2027.23
x264 [total]: encoded 133709 frames, 9.11 fps, 2060.6General
Unique ID : 139044239238967190109302845314644329547 (0x689AF246E8BA9B5D59051EE3A098444B)
Complete name : D:\Ostrov.2023.AMZN.WEB-DLRip.AVC.mkv
Format : Matroska
Format version : Version 4
File size : 2.21 GiB
Duration : 1 h 32 min
Overall bit rate : 3 408 kb/s
Frame rate : 23.976 FPS
Movie name : The Island (2023) WEB-DLRip AVC _ vitolinform
Encoded date : 2023-08-12 06:01:12 UTC
Writing application : mkvmerge v76.0 ('Celebration') 64-bit
Writing library : libebml v1.4.4 + libmatroska v1.7.1
Attachments : poster.jpg / log.log
Video
ID : 1
Format : AVC
Format/Info : Advanced Video Codec
Format profile : High@L4.1
Format settings : CABAC / 16 Ref Frames
Format settings, CABAC : Yes
Format settings, Reference frames : 16 frames
Codec ID : V_MPEG4/ISO/AVC
Duration : 1 h 32 min
Bit rate : 2 061 kb/s
Width : 1 024 pixels
Height : 426 pixels
Display aspect ratio : 2.40:1
Frame rate mode : Constant
Frame rate : 23.976 (24000/1001) FPS
Color space : YUV
Chroma subsampling : 4:2:0
Bit depth : 8 bits
Scan type : Progressive
Bits/(Pixel*Frame) : 0.197
Stream size : 1.34 GiB (60%)
Title : Остров / The Island (2023)
Writing library : x264 core 164 r3101 b093bbe
Encoding settings : cabac=1 / ref=16 / deblock=1:-3:-3 / analyse=0x3:0x113 / me=umh / subme=10 / psy=1 / psy_rd=1.00:0.05 / mixed_ref=1 / me_range=32 / chroma_me=1 / trellis=2 / 8x8dct=1 / cqm=0 / deadzone=21,11 / fast_pskip=0 / chroma_qp_offset=-3 / threads=12 / lookahead_threads=5 / sliced_threads=0 / nr=0 / decimate=0 / interlaced=0 / bluray_compat=0 / constrained_intra=0 / bframes=10 / b_pyramid=2 / b_adapt=2 / b_bias=0 / direct=1 / weightb=1 / open_gop=0 / weightp=2 / keyint=240 / keyint_min=24 / scenecut=40 / intra_refresh=0 / rc_lookahead=40 / rc=crf / mbtree=0 / crf=18.0 / qcomp=0.60 / qpmin=0 / qpmax=69 / qpstep=4 / vbv_maxrate=50000 / vbv_bufsize=62500 / crf_max=0.0 / nal_hrd=none / filler=0 / ip_ratio=1.40 / pb_ratio=1.40 / aq=1:1.00
Language : English
Default : Yes
Forced : No
Color range : Limited
Color primaries : BT.709
Transfer characteristics : BT.709
Matrix coefficients : BT.709
Audio #1
ID : 2
Format : AC-3
Format/Info : Audio Coding 3
Commercial name : Dolby Digital
Codec ID : A_AC3
Duration : 1 h 32 min
Bit rate mode : Constant
Bit rate : 448 kb/s
Channel(s) : 6 channels
Channel layout : L R C LFE Ls Rs
Sampling rate : 48.0 kHz
Frame rate : 31.250 FPS (1536 SPF)
Compression mode : Lossy
Stream size : 298 MiB (13%)
Title : MVO | HDRezka Studio
Language : Russian
Service kind : Complete Main
Default : Yes
Forced : No
Audio #2
ID : 3
Format : AC-3
Format/Info : Audio Coding 3
Commercial name : Dolby Digital
Codec ID : A_AC3
Duration : 1 h 32 min
Bit rate mode : Constant
Bit rate : 448 kb/s
Channel(s) : 6 channels
Channel layout : L R C LFE Ls Rs
Sampling rate : 48.0 kHz
Frame rate : 31.250 FPS (1536 SPF)
Compression mode : Lossy
Stream size : 298 MiB (13%)
Title : MVO | HDRezka Studio | 18+
Language : Russian
Service kind : Complete Main
Default : No
Forced : No
Audio #3
ID : 4
Format : AC-3
Format/Info : Audio Coding 3
Commercial name : Dolby Digital
Codec ID : A_AC3
Duration : 1 h 32 min
Bit rate mode : Constant
Bit rate : 448 kb/s
Channel(s) : 6 channels
Channel layout : L R C LFE Ls Rs
Sampling rate : 48.0 kHz
Frame rate : 31.250 FPS (1536 SPF)
Compression mode : Lossy
Stream size : 298 MiB (13%)
Title : English
Language : English
Service kind : Complete Main
Default : No
Forced : No
Text #1
ID : 5
Format : UTF-8
Codec ID : S_TEXT/UTF8
Codec ID/Info : UTF-8 Plain Text
Duration : 1 h 21 min
Bit rate : 1 b/s
Frame rate : 0.006 FPS
Count of elements : 28
Stream size : 1.10 KiB (0%)
Title : Forced
Language : Russian
Default : Yes
Forced : Yes
Text #2
ID : 6
Format : UTF-8
Codec ID : S_TEXT/UTF8
Codec ID/Info : UTF-8 Plain Text
Duration : 1 h 28 min
Bit rate : 57 b/s
Frame rate : 0.266 FPS
Count of elements : 1411
Stream size : 37.6 KiB (0%)
Title : SDH
Language : English
Default : No
Forced : No
Text #3
ID : 7
Format : UTF-8
Codec ID : S_TEXT/UTF8
Codec ID/Info : UTF-8 Plain Text
Duration : 1 h 26 min
Bit rate : 50 b/s
Frame rate : 0.208 FPS
Count of elements : 1082
Stream size : 32.1 KiB (0%)
Title : Full
Language : English
Default : No
Forced : No3 kb/s
Скриншоты:
Все одноименные релизы в КлубеВремя раздачи: как минимум до появления первых 3-5 скачавших, 24/7 (мультитрекерная раздача)
[Профиль] [ЛС]
Показать сообщения:    
Ответить на тему

Текущее время: 20-Апр 19:12

Часовой пояс: UTC ± 0



Вы не можете начинать темы
Вы не можете отвечать на сообщения
Вы не можете редактировать свои сообщения
Вы не можете удалять свои сообщения
Вы не можете голосовать в опросах
Вы не можете прикреплять файлы к сообщениям
Вы не можете скачивать файлы

[  Время выполнения: 0,034 сек  |  MySQL: 0,003 сек (8%) · 3 запр.  |  GZIP выкл  |  Память: 422,29 KB / 1,73 MB / 1,35 MB  |  Лимит: 10 11 12  ]