Больше, чем люди / Simulant (2023) BDRip [H.264/720p]

Ответить на тему
 
Автор Сообщение

admin ®

Пол: Не указан

Стаж: 7 месяца 26 дня

Сообщений: 11520

Создавать темы 30-Янв-2024 17:18

[Цитировать]

Больше, чем люди / Simulant (2023) BDRip [H.264/720p]- Производство: Канада, Myriad Pictures Inc., Three Point Capital, Vertical Entertainment
Жанр: фантастика, триллер
Режиссер: Эйприл Маллен
Актеры: Робби Амелл, Джордана Брюстер, Симу Лю, Сэм Уортингтон, Алисия Санс, Майко Нгуен, Маса Лиздек, Кристин Л. Нгуен, Эммануэль Кабонго, Саманта Хелт, Китан Криш, Вена Хехир, Мерседес Леггетт, Дерик Агиеманг, Фоде Бангура
Описание: Настали времена, когда человечество, презрев законы бытия, избавилось от страха потери близких. Теперь есть андроиды, способные воспроизвести облик любимых людей. Фэй недавно потеряла мужа и решила воспользоваться достижением цивилизации. Однако агент по надзору за интеллектом машин замечает нестандартное поведение её андроида. Что это? Непостижимая игра искусственного разума или страстное желание стать человеком и завоевать сердце Фэй? Особенно агента настораживает тот факт, что таких андроидов, как у Фэй, становится всё больше и больше...
Возраст: 16+ (зрителям, достигшим 16 лет)
Релиз от: msltel
Продолжительность: 01:36:00
Качество: BDRip
Перевод: дублированный, профессиональный многоголосый
Язык озвучки: русский, английский
Субтитры: русские, английские
Видео: AVC/H.264, 1280x534, 3664 kbps, 23.976 fps
Аудио 1: E-AC3, 6 ch, 448 kbps | русский (DUB Мосфильм мастер)
Аудио 2: AC3, 6 ch, 384 kbps | русский (MVO TVShows)
Аудио 3: DTS, 6 ch, 1509 kbps | английский

MediaInfo

Общее
Уникальный идентификатор : 239548545651407145152677566569610503521 (0xB4375F291235E04F3B7BE4AA30506561)
Полное имя : D:\Video\Больше, чем люди.2022.BDRip 720p msltel.mkv
Формат : Matroska
Версия формата : Version 4
Размер файла : 3,98 Гбайт
Продолжительность : 1 ч. 36 м.
Общий поток : 5 943 Кбит/сек
Частота кадров : 23,976 кадра/сек
Название фильма : Больше, чем люди.2022.BDRip 720p msltel
Дата кодирования : 2023-08-12 01:58:33 UTC
Программа кодирования : mkvmerge v44.0.0 ('Domino') 64-bit
Библиотека кодирования : libebml v1.3.10 + libmatroska v1.5.2
Видео
Идентификатор : 1
Формат : AVC
Формат/Информация : Advanced Video Codec
Профиль формата : High@L4.1
Настройки формата : CABAC / 12 Ref Frames
Параметр CABAC формата : Да
Параметр RefFrames формата : 12 кадров
Идентификатор кодека : V_MPEG4/ISO/AVC
Продолжительность : 1 ч. 36 м.
Битрейт : 3 664 Кбит/сек
Ширина : 1 280 пикселей
Высота : 534 пикселя
Соотношение сторон : 2,40:1
Режим частоты кадров : Постоянный
Частота кадров : 23,976 (24000/1001) кадра/сек
Цветовое пространство : YUV
Субдискретизация насыщенности : 4:2:0
Битовая глубина : 8 бит
Тип развёртки : Прогрессивная
Бит/(Пиксели*Кадры) : 0.224
Размер потока : 2,46 Гбайт (62%)
Библиотека кодирования : x264 core 164 r3085 0bb85e8
Настройки программы : cabac=1 / ref=12 / deblock=1:-1:-1 / analyse=0x3:0x113 / me=umh / subme=11 / psy=1 / psy_rd=1.00:0.00 / mixed_ref=1 / me_range=32 / chroma_me=1 / trellis=2 / 8x8dct=1 / cqm=0 / deadzone=21,11 / fast_pskip=0 / chroma_qp_offset=-2 / threads=12 / lookahead_threads=3 / sliced_threads=0 / nr=0 / decimate=0 / interlaced=0 / bluray_compat=0 / constrained_intra=0 / bframes=11 / b_pyramid=2 / b_adapt=2 / b_bias=0 / direct=1 / weightb=1 / open_gop=0 / weightp=2 / keyint=230 / keyint_min=23 / scenecut=40 / intra_refresh=0 / rc_lookahead=40 / rc=crf / mbtree=0 / crf=17.0 / qcomp=0.60 / qpmin=0 / qpmax=69 / qpstep=4 / vbv_maxrate=50000 / vbv_bufsize=62500 / crf_max=0.0 / nal_hrd=none / filler=0 / ip_ratio=1.40 / pb_ratio=1.30 / aq=3:1.00
Язык : English
Default : Да
Forced : Нет
Аудио #1
Идентификатор : 2
Формат : E-AC-3
Формат/Информация : Enhanced AC-3
Коммерческое название : Dolby Digital Plus
Идентификатор кодека : A_EAC3
Продолжительность : 1 ч. 35 м.
Вид битрейта : Постоянный
Битрейт : 384 Кбит/сек
Каналы : 6 каналов
Channel layout : L R C LFE Ls Rs
Частота : 48,0 КГц
Частота кадров : 31,250 кадров/сек (1536 SPF)
Метод сжатия : С потерями
Размер потока : 263 Мбайт (6%)
Заголовок : DUB Мосфильм мастер
Язык : Russian
Service kind : Complete Main
Default : Да
Forced : Нет
Аудио #2
Идентификатор : 3
Формат : AC-3
Формат/Информация : Audio Coding 3
Коммерческое название : Dolby Digital
Идентификатор кодека : A_AC3
Продолжительность : 1 ч. 36 м.
Вид битрейта : Постоянный
Битрейт : 384 Кбит/сек
Каналы : 6 каналов
Channel layout : L R C LFE Ls Rs
Частота : 48,0 КГц
Частота кадров : 31,250 кадров/сек (1536 SPF)
Метод сжатия : С потерями
Размер потока : 264 Мбайт (6%)
Заголовок : MVO TVShows
Язык : Russian
Service kind : Complete Main
Default : Нет
Forced : Нет
Аудио #3
Идентификатор : 4
Формат : DTS
Формат/Информация : Digital Theater Systems
Идентификатор кодека : A_DTS
Продолжительность : 1 ч. 36 м.
Вид битрейта : Постоянный
Битрейт : 1 509 Кбит/сек
Каналы : 6 каналов
Channel layout : C L R Ls Rs LFE
Частота : 48,0 КГц
Частота кадров : 93,750 кадра/сек (512 SPF)
Битовая глубина : 24 бит
Метод сжатия : С потерями
Размер потока : 1,01 Гбайт (25%)
Заголовок : оригинал
Язык : English
Default : Нет
Forced : Нет
Текст #1
Идентификатор : 5
Формат : UTF-8
Идентификатор кодека : S_TEXT/UTF8
Идентификатор кодека/Информация : UTF-8 Plain Text
Продолжительность : 1 ч. 32 м.
Битрейт : 82 бит/сек
Частота кадров : 0,195 кадр/сек
Count of elements : 1089
Размер потока : 56,4 Кбайт (0%)
Заголовок : русские
Язык : Russian
Default : Нет
Forced : Нет
Текст #2
Идентификатор : 6
Формат : UTF-8
Идентификатор кодека : S_TEXT/UTF8
Идентификатор кодека/Информация : UTF-8 Plain Text
Продолжительность : 1 ч. 32 м.
Битрейт : 45 бит/сек
Частота кадров : 0,196 кадр/сек
Count of elements : 1091
Размер потока : 30,9 Кбайт (0%)
Заголовок : английские
Язык : English
Default : Нет
Forced : Нет
Меню
00:00:00.000 : en:Глава 01
00:10:38.763 : en:Глава 02
00:19:28.458 : en:Глава 03
00:30:12.852 : en:Глава 04
00:39:37.375 : en:Глава 05
00:50:36.074 : en:Глава 06
00:59:48.167 : en:Глава 07
01:10:57.503 : en:Глава 08
01:21:20.750 : en:Глава 09
01:31:20.475 : en:Глава 10
Скриншоты:
Все одноименные релизы в КлубеВремя раздачи: 24/7 (минимум до появления первых 3-5 скачавших)
[Профиль] [ЛС]
Показать сообщения:    
Ответить на тему

Текущее время: 24-Май 13:19

Часовой пояс: UTC ± 0



Вы не можете начинать темы
Вы не можете отвечать на сообщения
Вы не можете редактировать свои сообщения
Вы не можете удалять свои сообщения
Вы не можете голосовать в опросах
Вы не можете прикреплять файлы к сообщениям
Вы не можете скачивать файлы

[  Время выполнения: 0,039 сек  |  MySQL: 0,003 сек (7%) · 3 запр.  |  GZIP выкл  |  Память: 422,29 KB / 1,75 MB / 1,37 MB  |  Лимит: 16 15 12  ]