Без обид / No Hard Feelings (2023) WEB-DL [H.264/1080p] [MVO]

Ответить на тему
 
Автор Сообщение

admin ®

Пол: Не указан

Стаж: 4 месяца 27 дня

Сообщений: 10110

Создавать темы 30-Янв-2024 17:18

[Цитировать]

Без обид / No Hard Feelings (2023) WEB-DL [H.264/1080p] - Производство: США / Excellent Cadaver, Odenkirk Provissiero Entertainment, Sony Pictures Entertainment (SPE)
Жанр: комедия, мелодрама
Режиссер: Джин Ступницки
Актеры: Дженнифер Лоуренс, Эндрю Барт Фельдман, Лаура Бенанти, Мэттью Бродерик, Натали Моралес, Скотт Макартур, Эбон Мосс-Бакрак, Кайл Муни, Хасан Минхадж, Jordan Mendoza
Описание:
Мэдди 32 года, она всю жизнь прожила в Монтоке — курортном местечке недалеко от Нью-Йорка. Богачи скупают тут недвижимость, налоги постоянно растут, а девушка пытается сохранить доставшийся в наследство от матери дом, поэтому оказывается по уши в долгах. Лишившись автомобиля и возможности таксовать, она в обмен на машину решает помочь богатеньким родителям, которые волнуются, что их 18-летнему сыну скоро в колледж, а он всё никак не вылезет из своей раковины. Задача Мэдди — лишить парня девственности, но сделать это оказывается не так-то просто.
Возраст: 18+ (зрителям, достигшим 18 лет. запрещено для детей)
Рейтинг MPAA: R (лицам до 17 лет обязательно присутствие взрослого)
Релиз от: EniaHD
Продолжительность: 01:43:22
Качество видео: WEB-DL
Перевод: Многоголосый профессиональный (Jaskier)
Язык озвучки: Русский, украинский, английский
Субтитры: Русские, английские (Forced, Full, SDH), иврит, украинские (Forced, Full)
Видео: AVC/H.264, 1920x1040, 9131 Kbps
Аудио 1: АС3, 6 ch, 384 Kbps - русский (MVO, Jaskier) без цензуры 18+
Аудио 2: E-AC3, 6 ch, 384 Kbps - украинский (DUB, LeDoyen)
Аудио 3: E-АС3, 6 ch, 640 Kbps - английский

MediaInfo:

General
Unique ID : 278937426644207130318924286463034575339 (0xD1D964EE1F007A0FCD84136E6658C9EB)
Complete name : No.Hard.Feelings.2023.1080p.AMZN.WEB-DL.H.264-EniaHD.mkv
Format : Matroska
Format version : Version 4
File size : 7.61 GiB
Duration : 1 h 43 min
Overall bit rate : 10.5 Mb/s
Frame rate : 23.976 FPS
Movie name : No Hard Feelings (2023) - EniaHD
Writing application : mkvmerge v57.0.0 ('Till The End') 64-bit
Writing library : libebml v1.4.2 + libmatroska v1.6.4
Video
ID : 1
Format : AVC
Format/Info : Advanced Video Codec
Format profile : High@L4
Format settings : CABAC / 4 Ref Frames
Format settings, CABAC : Yes
Format settings, Reference fra : 4 frames
Codec ID : V_MPEG4/ISO/AVC
Duration : 1 h 43 min
Bit rate mode : Constant
Bit rate : 9 131 kb/s
Nominal bit rate : 10 000 kb/s
Width : 1 920 pixels
Height : 1 040 pixels
Display aspect ratio : 1.85:1
Frame rate mode : Constant
Frame rate : 23.976 (24000/1001) FPS
Color space : YUV
Chroma subsampling : 4:2:0
Bit depth : 8 bits
Scan type : Progressive
Bits/(Pixel*Frame) : 0.191
Stream size : 6.59 GiB (87%)
Default : Yes
Forced : No
Color range : Limited
Color primaries : BT.709
Transfer characteristics : BT.709
Matrix coefficients : BT.709
Audio #1
ID : 2
Format : AC-3
Format/Info : Audio Coding 3
Commercial name : Dolby Digital
Codec ID : A_AC3
Duration : 1 h 43 min
Bit rate mode : Constant
Bit rate : 384 kb/s
Channel(s) : 6 channels
Channel layout : L R C LFE Ls Rs
Sampling rate : 48.0 kHz
Frame rate : 31.250 FPS (1536 SPF)
Compression mode : Lossy
Stream size : 284 MiB (4%)
Title : Jaskier
Language : Russian
Service kind : Complete Main
Default : Yes
Forced : No
Audio #2
ID : 3
Format : E-AC-3
Format/Info : Enhanced AC-3
Commercial name : Dolby Digital Plus
Codec ID : A_EAC3
Duration : 1 h 43 min
Bit rate mode : Constant
Bit rate : 384 kb/s
Channel(s) : 6 channels
Channel layout : L R C LFE Ls Rs
Sampling rate : 48.0 kHz
Frame rate : 31.250 FPS (1536 SPF)
Compression mode : Lossy
Stream size : 284 MiB (4%)
Title : LeDoyen
Language : Ukrainian
Service kind : Complete Main
Default : No
Forced : No
Audio #3
ID : 4
Format : E-AC-3
Format/Info : Enhanced AC-3
Commercial name : Dolby Digital Plus
Codec ID : A_EAC3
Duration : 1 h 43 min
Bit rate mode : Constant
Bit rate : 640 kb/s
Channel(s) : 6 channels
Channel layout : L R C LFE Ls Rs
Sampling rate : 48.0 kHz
Frame rate : 31.250 FPS (1536 SPF)
Compression mode : Lossy
Stream size : 473 MiB (6%)
Title : English
Language : English
Service kind : Complete Main
Default : No
Forced : No
Text #1
ID : 5
Format : UTF-8
Codec ID : S_TEXT/UTF8
Codec ID/Info : UTF-8 Plain Text
Duration : 1 h 42 min
Bit rate : 96 b/s
Frame rate : 0.253 FPS
Count of elements : 1549
Stream size : 72.1 KiB (0%)
Title : Russian
Language : Russian
Default : No
Forced : No
Text #2
ID : 6
Format : UTF-8
Codec ID : S_TEXT/UTF8
Codec ID/Info : UTF-8 Plain Text
Duration : 1 h 35 min
Bit rate : 66 b/s
Frame rate : 0.266 FPS
Count of elements : 1528
Stream size : 46.8 KiB (0%)
Title : English
Language : English
Default : No
Forced : No
Text #3
ID : 7
Format : UTF-8
Codec ID : S_TEXT/UTF8
Codec ID/Info : UTF-8 Plain Text
Duration : 1 h 40 min
Bit rate : 77 b/s
Frame rate : 0.300 FPS
Count of elements : 1814
Stream size : 57.1 KiB (0%)
Title : English (SDH)
Language : English
Default : No
Forced : No
Text #4
ID : 8
Format : UTF-8
Codec ID : S_TEXT/UTF8
Codec ID/Info : UTF-8 Plain Text
Duration : 1 h 42 min
Bit rate : 82 b/s
Frame rate : 0.252 FPS
Count of elements : 1547
Stream size : 61.5 KiB (0%)
Title : Hebrew
Language : Hebrew
Default : No
Forced : No
Text #5
ID : 9
Format : UTF-8
Codec ID : S_TEXT/UTF8
Codec ID/Info : UTF-8 Plain Text
Duration : 1 h 42 min
Bit rate : 93 b/s
Frame rate : 0.252 FPS
Count of elements : 1546
Stream size : 70.1 KiB (0%)
Title : Ukrainian
Language : Ukrainian
Default : No
Forced : No
Text #6
ID : 10
Format : UTF-8
Codec ID : S_TEXT/UTF8
Codec ID/Info : UTF-8 Plain Text
Duration : 1 h 42 min
Bit rate : 0 b/s
Frame rate : 0.002 FPS
Count of elements : 14
Stream size : 440 Bytes (0%)
Title : Ukrainian (Forced)
Language : Ukrainian
Default : No
Forced : No
Text #7
ID : 11
Format : UTF-8
Codec ID : S_TEXT/UTF8
Codec ID/Info : UTF-8 Plain Text
Duration : 4 s 4 ms
Bit rate : 71 b/s
Frame rate : 0.500 FPS
Count of elements : 2
Stream size : 36.0 Bytes (0%)
Title : English (Forced)
Language : English
Default : No
Forced : No
Menu
00:00:00.000 : en:Chapter 1
00:06:45.613 : en:Chapter 2
00:12:36.423 : en:Chapter 3
00:18:26.356 : en:Chapter 4
00:27:05.959 : en:Chapter 5
00:33:23.086 : en:Chapter 6
00:39:58.273 : en:Chapter 7
00:44:47.729 : en:Chapter 8
00:52:06.376 : en:Chapter 9
01:01:06.416 : en:Chapter 10
01:06:52.303 : en:Chapter 11
01:11:07.934 : en:Chapter 12
01:20:21.112 : en:Chapter 13
01:23:51.156 : en:Chapter 14
01:32:26.796 : en:Chapter 15
01:35:05.121 : en:Chapter 16
Скриншоты:
Все одноименные релизы в КлубеВремя раздачи: 24/7 (мультитрекерная раздача)
[Профиль] [ЛС]
Показать сообщения:    
Ответить на тему

Текущее время: 25-Фев 22:12

Часовой пояс: UTC ± 0



Вы не можете начинать темы
Вы не можете отвечать на сообщения
Вы не можете редактировать свои сообщения
Вы не можете удалять свои сообщения
Вы не можете голосовать в опросах
Вы не можете прикреплять файлы к сообщениям
Вы не можете скачивать файлы

[  Время выполнения: 0,046 сек  |  MySQL: 0,002 сек (5%) · 3 запр.  |  GZIP выкл  |  Память: 422,29 KB / 1,75 MB / 1,37 MB  |  Лимит: 13 15 17  ]