Машина / The Machine (2023) BDRip [H.264/1080p]

Ответить на тему
 
Автор Сообщение

admin ®

Пол: Не указан

Стаж: 5 месяца

Сообщений: 10110

Создавать темы 30-Янв-2024 17:18

[Цитировать]

Машина / The Machine (2023) BDRip [H.264/1080p]- Производство: США, Balkanic Media, Shaken Not Stirred
Жанр: боевик, комедия
Режиссер: Питер Атенсио
Продюсер: Питер Атенсио, Кейл Бойтер,
Актеры: Берт Крайшер, Марк Хэмилл, Джимми Татро, Айва Бабич, Роберт Мазер, Стефани Курцуба, Мартин Форд, Джесс Габор, , Никола Джуричко
Описание: В юности главный герой Берт волею случая и собственного раздолбайства оказался в России 1990-х годов, где связался с местными бандитами. Вместо учебы в России Берт в основном пил и путался с сомнительными личностями, результатом чего стало его участие в преступлении. Спустя 20 лет герой вновь сталкивается со своим бурным прошлым, когда Берта и его отца похищают люди, которых он обманул в России во времена своего студенчества. «Машина» — криминальная комедия по мотивам популярного стендапа комика Берта Крайшера.
Рейтинг MPAA: R (Лицам до 17 обязательно присутствие взрослых)
Релиз от: Soft-Torrent - торрент игры программы фильмы книги скачать
Продолжительность: 01:52:23
Качество видео: BDRip 1080p
Перевод: Профессиональный многоголосый (Лицензия, HDRezka, Jaskier)
Язык озвучки: Русский, Украинский, Английский
Субтитры: Русские (2x Forced, Full), Украинские (Forced, Full), Английские (Forced, Full, SDH)
Видео: AVC/H.264, 1920x804, 13.1 Mbps, 23.976 fps
Аудио 1: AC-3, 6 ch, 384 Kbps | Русский MVO License
Аудио 2: AC-3, 6 ch, 384 Kbps | Русский MVO HDRezka
Аудио 3: AC-3, 6 ch, 448 Kbps | Русский MVO Jaskier
Аудио 4: AC-3, 6 ch, 384 Kbps | Украинский Dub License
Аудио 5: E-AC-3, 6 ch, 1024 Kbps | Английский

Mediainfo:

General
Unique ID : 208662179159415511317960350121800708574 (0x9CFADFB897E6ED90A61AD2797D2331DE)
Complete name : /Volumes/Promise Pegasus/The.Machine.2023.BDRip.1080p.pk.mkv
Format : Matroska
Format version : Version 4
File size : 12.3 GiB
Duration : 1 h 52 min
Overall bit rate : 15.7 Mb/s
Frame rate : 23.976 FPS
Movie name : The Machine 2023 BDRip 1080p pk
Encoded date : 2023-08-12 23:19:22 UTC
Writing application : mkvmerge v73.0.0 ('25 or 6 to 4') 64-bit
Writing library : libebml v1.4.4 + libmatroska v1.7.1
Cover : Yes
Attachments : cover.jpg / small_cover.jpg
Video
ID : 1
Format : AVC
Format/Info : Advanced Video Codec
Format profile : High@L4.1
Format settings : CABAC / 5 Ref Frames
Format settings, CABAC : Yes
Format settings, Reference frames : 5 frames
Codec ID : V_MPEG4/ISO/AVC
Duration : 1 h 52 min
Bit rate : 13.1 Mb/s
Width : 1 920 pixels
Height : 804 pixels
Display aspect ratio : 2.40:1
Frame rate mode : Constant
Frame rate : 23.976 (24000/1001) FPS
Color space : YUV
Chroma subsampling : 4:2:0
Bit depth : 8 bits
Scan type : Progressive
Bits/(Pixel*Frame) : 0.354
Stream size : 10.3 GiB (83%)
Writing library : x264 core 164 r3107+58M encoded by Pk5360114 from Russia
Encoding settings : cabac=1 / ref=5 / deblock=1:-3:-3 / analyse=0x3:0x133 / me=esa / subme=11 / psy=1 / fade_compensate=0.00 / psy_rd=1.05:0.00 / mixed_ref=1 / me_range=32 / chroma_me=1 / trellis=2 / 8x8dct=1 / cqm=0 / deadzone=21,11 / fast_pskip=0 / chroma_qp_offset=-2 / threads=25 / lookahead_threads=4 / sliced_threads=0 / nr=0 / decimate=0 / interlaced=0 / bluray_compat=0 / constrained_intra=0 / fgo=0 / bframes=8 / b_pyramid=2 / b_adapt=2 / b_bias=0 / direct=3 / weightb=1 / open_gop=0 / weightp=2 / keyint=240 / keyint_min=23 / scenecut=40 / intra_refresh=0 / rc_lookahead=60 / rc=crf / mbtree=0 / crf=17.0000 / qcomp=0.62 / qpmin=0:0:0 / qpmax=69:69:69 / qpstep=4 / vbv_maxrate=62500 / vbv_bufsize=78125 / crf_max=0.0 / nal_hrd=none / filler=0 / ip_ratio=1.30 / pb_ratio=1.20 / aq=3:0.80 / aq-sensitivity=10.00 / aq-factor=1.00:1.00:1.00:1.00 / aq2=0 / aq3=0
Language : English
Default : Yes
Forced : No
Color range : Limited
Color primaries : BT.709
Transfer characteristics : BT.709
Matrix coefficients : BT.709
Audio #1
ID : 2
Format : AC-3
Format/Info : Audio Coding 3
Commercial name : Dolby Digital
Codec ID : A_AC3
Duration : 1 h 52 min
Bit rate mode : Constant
Bit rate : 384 kb/s
Channel(s) : 6 channels
Channel layout : L R C LFE Ls Rs
Sampling rate : 48.0 kHz
Frame rate : 31.250 FPS (1536 SPF)
Compression mode : Lossy
Stream size : 309 MiB (2%)
Title : Russian MVO License
Language : Russian
Service kind : Complete Main
Default : Yes
Forced : No
Audio #2
ID : 3
Format : AC-3
Format/Info : Audio Coding 3
Commercial name : Dolby Digital
Codec ID : A_AC3
Duration : 1 h 52 min
Bit rate mode : Constant
Bit rate : 384 kb/s
Channel(s) : 6 channels
Channel layout : L R C LFE Ls Rs
Sampling rate : 48.0 kHz
Frame rate : 31.250 FPS (1536 SPF)
Compression mode : Lossy
Stream size : 309 MiB (2%)
Title : Russian MVO Jaskier
Language : Russian
Service kind : Complete Main
Default : No
Forced : No
Audio #3
ID : 4
Format : AC-3
Format/Info : Audio Coding 3
Commercial name : Dolby Digital
Codec ID : A_AC3
Duration : 1 h 52 min
Bit rate mode : Constant
Bit rate : 448 kb/s
Channel(s) : 6 channels
Channel layout : L R C LFE Ls Rs
Sampling rate : 48.0 kHz
Frame rate : 31.250 FPS (1536 SPF)
Compression mode : Lossy
Stream size : 360 MiB (3%)
Title : Russian MVO HDRezka Studio
Language : Russian
Service kind : Complete Main
Default : No
Forced : No
Audio #4
ID : 5
Format : AC-3
Format/Info : Audio Coding 3
Commercial name : Dolby Digital
Codec ID : A_AC3
Duration : 1 h 52 min
Bit rate mode : Constant
Bit rate : 384 kb/s
Channel(s) : 6 channels
Channel layout : L R C LFE Ls Rs
Sampling rate : 48.0 kHz
Frame rate : 31.250 FPS (1536 SPF)
Compression mode : Lossy
Stream size : 309 MiB (2%)
Title : Ukrainian Dub License
Language : Ukrainian
Service kind : Complete Main
Default : No
Forced : No
Audio #5
ID : 6
Format : E-AC-3
Format/Info : Enhanced AC-3
Commercial name : Dolby Digital Plus
Codec ID : A_EAC3
Duration : 1 h 52 min
Bit rate mode : Constant
Bit rate : 1 024 kb/s
Channel(s) : 6 channels
Channel layout : L R C LFE Ls Rs
Sampling rate : 48.0 kHz
Frame rate : 31.250 FPS (1536 SPF)
Compression mode : Lossy
Stream size : 823 MiB (7%)
Title : English Original
Language : English
Service kind : Complete Main
Default : No
Forced : No
Text #1
ID : 7
Format : UTF-8
Codec ID : S_TEXT/UTF8
Codec ID/Info : UTF-8 Plain Text
Duration : 1 h 51 min
Bit rate : 1 b/s
Frame rate : 0.004 FPS
Count of elements : 28
Stream size : 1.07 KiB (0%)
Title : Russian forced vol.1
Language : Russian
Default : Yes
Forced : No
Text #2
ID : 8
Format : UTF-8
Codec ID : S_TEXT/UTF8
Codec ID/Info : UTF-8 Plain Text
Duration : 1 h 44 min
Bit rate : 3 b/s
Frame rate : 0.006 FPS
Count of elements : 36
Stream size : 2.48 KiB (0%)
Title : Russian forced vol.2
Language : Russian
Default : No
Forced : No
Text #3
ID : 9
Format : UTF-8
Codec ID : S_TEXT/UTF8
Codec ID/Info : UTF-8 Plain Text
Duration : 1 h 51 min
Bit rate : 100 b/s
Frame rate : 0.281 FPS
Count of elements : 1884
Stream size : 82.1 KiB (0%)
Title : Russian full
Language : Russian
Default : No
Forced : No
Text #4
ID : 10
Format : UTF-8
Codec ID : S_TEXT/UTF8
Codec ID/Info : UTF-8 Plain Text
Duration : 1 h 50 min
Bit rate : 3 b/s
Frame rate : 0.010 FPS
Count of elements : 64
Stream size : 2.66 KiB (0%)
Title : Ukrainian forced
Language : Ukrainian
Default : No
Forced : No
Text #5
ID : 11
Format : UTF-8
Codec ID : S_TEXT/UTF8
Codec ID/Info : UTF-8 Plain Text
Duration : 1 h 51 min
Bit rate : 101 b/s
Frame rate : 0.281 FPS
Count of elements : 1884
Stream size : 83.2 KiB (0%)
Title : Ukrainian full
Language : Ukrainian
Default : No
Forced : No
Text #6
ID : 12
Format : UTF-8
Codec ID : S_TEXT/UTF8
Codec ID/Info : UTF-8 Plain Text
Duration : 1 h 36 min
Bit rate : 1 b/s
Frame rate : 0.007 FPS
Count of elements : 41
Stream size : 1 005 Bytes (0%)
Title : English forced
Language : English
Default : No
Forced : No
Text #7
ID : 13
Format : UTF-8
Codec ID : S_TEXT/UTF8
Codec ID/Info : UTF-8 Plain Text
Duration : 1 h 46 min
Bit rate : 76 b/s
Frame rate : 0.304 FPS
Count of elements : 1949
Stream size : 60.3 KiB (0%)
Title : English full
Language : English
Default : No
Forced : No
Text #8
ID : 14
Format : UTF-8
Codec ID : S_TEXT/UTF8
Codec ID/Info : UTF-8 Plain Text
Duration : 1 h 48 min
Bit rate : 85 b/s
Frame rate : 0.333 FPS
Count of elements : 2165
Stream size : 68.1 KiB (0%)
Title : English SDH
Language : English
Default : No
Forced : No
Menu
00:00:00.000 : en:Глава 01
00:04:26.141 : en:Глава 02
00:09:32.030 : en:Глава 03
00:14:27.366 : en:Глава 04
00:19:11.525 : en:Глава 05
00:25:28.026 : en:Глава 06
00:30:57.189 : en:Глава 07
00:36:34.734 : en:Глава 08
00:42:12.655 : en:Глава 09
00:53:41.343 : en:Глава 10
01:01:37.360 : en:Глава 11
01:05:53.366 : en:Глава 12
01:16:47.311 : en:Глава 13
01:22:28.193 : en:Глава 14
01:37:28.801 : en:Глава 15
01:43:38.754 : en:Глава 16
01:46:08.362 : en:Глава 17

x264 log:

x264 [info]: frame I:1394  Avg QP:14.68  size:224694
x264 [info]: frame P:36236 Avg QP:16.23 size:114287
x264 [info]: frame B:124058 Avg QP:17.63 size: 53026
x264 [info]: consecutive B-frames: 2.2% 3.5% 5.3% 31.4% 15.1% 29.5% 6.7% 5.6% 0.7%
x264 [info]: kb/s:13088.07

Скриншоты сравнения






Скриншоты:
Все одноименные релизы в КлубеВремя раздачи: 24/7 (круглосуточно) (до появления первых 3-5 скачавших)
[Профиль] [ЛС]
Показать сообщения:    
Ответить на тему

Текущее время: 28-Фев 21:49

Часовой пояс: UTC ± 0



Вы не можете начинать темы
Вы не можете отвечать на сообщения
Вы не можете редактировать свои сообщения
Вы не можете удалять свои сообщения
Вы не можете голосовать в опросах
Вы не можете прикреплять файлы к сообщениям
Вы не можете скачивать файлы

[  Время выполнения: 0,048 сек  |  MySQL: 0,003 сек (6%) · 3 запр.  |  GZIP выкл  |  Память: 422,29 KB / 1,78 MB / 1,41 MB  |  Лимит: 16 16 15  ]