Двойная жизнь / Double Life (2023) WEB-DLRip [H.264] [MVO]

Ответить на тему
 
Автор Сообщение

admin ®

Пол: Не указан

Стаж: 4 месяца 27 дня

Сообщений: 10110

Создавать темы 30-Янв-2024 17:17

[Цитировать]

Двойная жизнь / Double Life (2023) WEB-DLRip - Производство: Канада / Lighthouse Pictures, Motion Pictures Association of America members
Жанр: триллер, криминал
Режиссер: Мартин Вуд
Продюсер: Брэд Кревой, Джон МакКарти, Эрик Жарбо
Актеры: Джависия Лесли, Джон Кассини, Винсент Гэйл, Аарон Дуглас, Найалл Мэттер, Джоджо Ахенкора, Вероника Хадрава, Б.Дж. Харрисон, Паскаль Хаттон, Уильям МакДональд
Описание:
После смерти своего мужа героиня узнает, что он жил двойной жизнью и имел любовницу. Вторая женщина приходит к вдове, чтобы сообщить ей, что смерть их любимого мужчины была не случайной. Официальная жена и любовница вынуждены сотрудничать, чтобы вместе наказать убийцу.
Рейтинг MPAA: R (лицам до 17 лет обязательно присутствие взрослого)
Релиз от: Rip by vitolinform
Продолжительность: 01:29:40
Качество видео: WEB-DLRip
Перевод: Многоголосый профессиональный (HDRezka Studio)
Язык озвучки: русский, английский
Субтитры: английские (full, SDH), русские (forced)
Видео: AVC/H.264, 1024x426, ~1489 Кbps
Аудио 1: AC3, 6 ch, 448 Кbps | Русский (MVO, HDRezka Studio)
Аудио 2: AC3, 6 ch, 448 Кbps | Английский

MediaInfo:

raw [info]: 1024x426p 1:1 @ 24000/1001 fps (cfr)
x264 [info]: using SAR=1/1
x264 [info]: using cpu capabilities: MMX2 SSE2Fast SSSE3 SSE4.2 AVX FMA3 BMI2 AVX2
x264 [info]: profile High, level 4.1, 4:2:0, 8-bit
x264 [info]: frame I:1175 Avg QP:15.36 size: 51023
x264 [info]: frame P:29950 Avg QP:17.07 size: 18434
x264 [info]: frame B:97856 Avg QP:19.94 size: 3979
x264 [info]: consecutive B-frames: 1.8% 3.5% 8.0% 39.7% 14.6% 24.0% 3.9% 3.1% 0.7% 0.3% 0.4%
x264 [info]: mb I I16..4: 6.0% 77.5% 16.4%
x264 [info]: mb P I16..4: 1.0% 8.9% 1.1% P16..4: 37.3% 29.6% 16.0% 0.0% 0.0% skip: 6.0%
x264 [info]: mb B I16..4: 0.1% 0.4% 0.1% B16..8: 39.2% 11.2% 2.8% direct: 3.3% skip:43.0% L0:41.0% L1:47.4% BI:11.6%
x264 [info]: 8x8 transform intra:79.8% inter:57.3%
x264 [info]: coded y,uvDC,uvAC intra: 88.6% 82.1% 68.4% inter: 17.1% 14.5% 8.4%
x264 [info]: i16 v,h,dc,p: 38% 12% 13% 37%
x264 [info]: i8 v,h,dc,ddl,ddr,vr,hd,vl,hu: 17% 10% 12% 8% 10% 11% 10% 11% 11%
x264 [info]: i4 v,h,dc,ddl,ddr,vr,hd,vl,hu: 18% 10% 4% 8% 13% 14% 11% 11% 10%
x264 [info]: i8c dc,h,v,p: 46% 21% 21% 11%
x264 [info]: Weighted P-Frames: Y:2.7% UV:1.2%
x264 [info]: ref P L0: 52.7% 10.8% 15.7% 4.9% 4.1% 2.7% 2.5% 1.1% 1.1% 0.8% 0.8% 0.6% 0.7% 0.5% 0.6% 0.4%
x264 [info]: ref B L0: 75.9% 11.2% 4.7% 2.2% 1.6% 1.2% 0.8% 0.5% 0.4% 0.4% 0.3% 0.3% 0.2% 0.2% 0.1%
x264 [info]: ref B L1: 94.2% 5.8%
x264 [info]: kb/s:1489.21
x264 [total]: encoded 128981 frames, 9.85 fps, 1489.21 kb/s
==============================================================
General
Unique ID : 171898484512294889759520644643559154811 (0x815271A193693A46952A10AEC2A9A47B)
Complete name : D:\Dvojnaya.zhizn.2023.AMZN.WEB-DLRip.AVC.mkv
Format : Matroska
Format version : Version 4
File size : 1.50 GiB
Duration : 1 h 29 min
Overall bit rate : 2 387 kb/s
Frame rate : 23.976 FPS
Movie name : Double Life (2023) WEB-DLRip AVC _ vitolinform
Encoded date : 2023-08-13 08:56:34 UTC
Writing application : mkvmerge v76.0 ('Celebration') 64-bit
Writing library : libebml v1.4.4 + libmatroska v1.7.1
Attachments : poster.jpg / log.log
Video
ID : 1
Format : AVC
Format/Info : Advanced Video Codec
Format profile : High@L4.1
Format settings : CABAC / 16 Ref Frames
Format settings, CABAC : Yes
Format settings, Reference frames : 16 frames
Codec ID : V_MPEG4/ISO/AVC
Duration : 1 h 29 min
Bit rate : 1 489 kb/s
Width : 1 024 pixels
Height : 426 pixels
Display aspect ratio : 2.40:1
Frame rate mode : Constant
Frame rate : 23.976 (24000/1001) FPS
Color space : YUV
Chroma subsampling : 4:2:0
Bit depth : 8 bits
Scan type : Progressive
Bits/(Pixel*Frame) : 0.142
Stream size : 955 MiB (62%)
Title : Двойная жизнь / Double Life (2023)
Writing library : x264 core 164 r3101 b093bbe
Encoding settings : cabac=1 / ref=16 / deblock=1:-3:-3 / analyse=0x3:0x113 / me=umh / subme=10 / psy=1 / psy_rd=1.00:0.05 / mixed_ref=1 / me_range=32 / chroma_me=1 / trellis=2 / 8x8dct=1 / cqm=0 / deadzone=21,11 / fast_pskip=0 / chroma_qp_offset=-3 / threads=12 / lookahead_threads=5 / sliced_threads=0 / nr=0 / decimate=0 / interlaced=0 / bluray_compat=0 / constrained_intra=0 / bframes=10 / b_pyramid=2 / b_adapt=2 / b_bias=0 / direct=1 / weightb=1 / open_gop=0 / weightp=2 / keyint=240 / keyint_min=24 / scenecut=40 / intra_refresh=0 / rc_lookahead=40 / rc=crf / mbtree=0 / crf=17.7 / qcomp=0.60 / qpmin=0 / qpmax=69 / qpstep=4 / vbv_maxrate=50000 / vbv_bufsize=62500 / crf_max=0.0 / nal_hrd=none / filler=0 / ip_ratio=1.40 / pb_ratio=1.40 / aq=1:1.00
Language : English
Default : Yes
Forced : No
Color range : Limited
Color primaries : BT.709
Transfer characteristics : BT.709
Matrix coefficients : BT.709
Audio #1
ID : 2
Format : AC-3
Format/Info : Audio Coding 3
Commercial name : Dolby Digital
Codec ID : A_AC3
Duration : 1 h 29 min
Bit rate mode : Constant
Bit rate : 448 kb/s
Channel(s) : 6 channels
Channel layout : L R C LFE Ls Rs
Sampling rate : 48.0 kHz
Frame rate : 31.250 FPS (1536 SPF)
Compression mode : Lossy
Stream size : 287 MiB (19%)
Title : MVO | HDRezka Studio
Language : Russian
Service kind : Complete Main
Default : Yes
Forced : No
Audio #2
ID : 3
Format : AC-3
Format/Info : Audio Coding 3
Commercial name : Dolby Digital
Codec ID : A_AC3
Duration : 1 h 29 min
Bit rate mode : Constant
Bit rate : 448 kb/s
Channel(s) : 6 channels
Channel layout : L R C LFE Ls Rs
Sampling rate : 48.0 kHz
Frame rate : 31.250 FPS (1536 SPF)
Compression mode : Lossy
Stream size : 287 MiB (19%)
Title : English
Language : English
Service kind : Complete Main
Default : No
Forced : No
Text #1
ID : 4
Format : UTF-8
Codec ID : S_TEXT/UTF8
Codec ID/Info : UTF-8 Plain Text
Duration : 1 h 9 min
Bit rate : 1 b/s
Frame rate : 0.003 FPS
Count of elements : 13
Stream size : 588 Bytes (0%)
Title : Forced
Language : Russian
Default : Yes
Forced : Yes
Text #2
ID : 5
Format : UTF-8
Codec ID : S_TEXT/UTF8
Codec ID/Info : UTF-8 Plain Text
Duration : 1 h 26 min
Bit rate : 61 b/s
Frame rate : 0.231 FPS
Count of elements : 1191
Stream size : 38.6 KiB (0%)
Title : Full
Language : English
Default : No
Forced : No
Text #3
ID : 6
Format : UTF-8
Codec ID : S_TEXT/UTF8
Codec ID/Info : UTF-8 Plain Text
Duration : 1 h 29 min
Bit rate : 68 b/s
Frame rate : 0.266 FPS
Count of elements : 1423
Stream size : 44.7 KiB (0%)
Title : SDH
Language : English
Default : No
Forced : No
Скриншоты:
Все одноименные релизы в КлубеВремя раздачи: как минимум до появления первых 3-5 скачавших, 24/7 (мультитрекерная раздача)
[Профиль] [ЛС]
Показать сообщения:    
Ответить на тему

Текущее время: 25-Фев 22:06

Часовой пояс: UTC ± 0



Вы не можете начинать темы
Вы не можете отвечать на сообщения
Вы не можете редактировать свои сообщения
Вы не можете удалять свои сообщения
Вы не можете голосовать в опросах
Вы не можете прикреплять файлы к сообщениям
Вы не можете скачивать файлы

[  Время выполнения: 0,034 сек  |  MySQL: 0,002 сек (5%) · 3 запр.  |  GZIP выкл  |  Память: 422,29 KB / 1,75 MB / 1,37 MB  |  Лимит: 18 19 18  ]