Потомок / Gwigongja / The Childe (2023) WEB-DL [H.264/1080p] [DVO]

Ответить на тему
 
Автор Сообщение

admin ®

Пол: Не указан

Стаж: 4 месяца 27 дня

Сообщений: 10110

Создавать темы 30-Янв-2024 17:17

[Цитировать]

Потомок / Gwigongja (The Childe) (2023) WEB-DL [H.264/1080p]- Производство: Южная Корея / Next Entertainment World, Goldmoon Film
Жанр: боевик, триллер, драма, криминал
Режиссер: Пак Хун-джон
Актеры: Ким Сон-хо, Кан Тхэ-джу, Кан У Ким, Ко А-ра, Квон Хёк-хён, Джастин Джон Харви
Описание:
Филиппинский парень, рожденный от отца-корейца и матери-филиппинки, мечтает стать боксером. Он отправляется в Южную Корею, чтобы найти бросившего его отца, но в одночасье он становится мишенью для многих людей, преследующих свои цели.
Релиз от: JNS82
Продолжительность: 01:57:47
Качество видео: WEB-DL
Перевод: Любительский двухголосый (Softbox), авторский (Ю. Сербин 18+)
Язык озвучки: Русский, корейский
Субтитры: Английские, корейские (хардсаб на иностранную речь)
Видео: AVC/H.264, 1920x1080, ~8000 Kbps
Аудио #1: AC3, 2 ch, 192 Kbps - Русский (Softbox)
Аудио #2: AC3, 2 ch, 192 Kbps - Русский (Ю. Сербин 18+)
Аудио #3: AAC, 2 ch, 128 Kbps - Корейский

MediaInfo:

General
Unique ID : 259725625501614009968470540838334426106 (0xC3655600AD3F57AFFDEDB83674FCEBFA)
Complete name : E:TorrentsThe.Childe.2023.WEB-DL.1080p_от New-Team_JNS82.mkv
Format : Matroska
Format version : Version 4
File size : 7.00 GiB
Duration : 1 h 57 min
Overall bit rate : 8 514 kb/s
Movie name : The.Childe.2023.WEB-DL.1080p_от New-Team_JNS82
Encoded date : UTC 2023-08-11 19:40:08
Writing application : mkvmerge v59.0.0 ('Shining Star') 64-bit
Writing library : libebml v1.4.2 + libmatroska v1.6.4
Video
ID : 1
Format : AVC
Format/Info : Advanced Video Codec
Format profile : Main@L4
Format settings : CABAC / 2 Ref Frames
Format settings, CABAC : Yes
Format settings, Reference : 2 frames
Format settings, GOP : M=1, N=30
Codec ID : V_MPEG4/ISO/AVC
Duration : 1 h 57 min
Bit rate mode : Constant
Bit rate : 8 000 kb/s
Width : 1 920 pixels
Height : 1 080 pixels
Display aspect ratio : 16:9
Frame rate mode : Constant
Frame rate : 23.976 (24000/1001) FPS
Color space : YUV
Chroma subsampling : 4:2:0
Bit depth : 8 bits
Scan type : Progressive
Bits/(Pixel*Frame) : 0.161
Stream size : 6.58 GiB (94%)
Language : Korean
Default : Yes
Forced : No
Audio #1
ID : 2
Format : AC-3
Format/Info : Audio Coding 3
Commercial name : Dolby Digital
Codec ID : A_AC3
Duration : 1 h 57 min
Bit rate mode : Constant
Bit rate : 192 kb/s
Channel(s) : 2 channels
Channel layout : L R
Sampling rate : 48.0 kHz
Frame rate : 31.250 FPS (1536 SPF)
Compression mode : Lossy
Stream size : 162 MiB (2%)
Title : DVO - Softbox
Language : Russian
Service kind : Complete Main
Default : Yes
Forced : No
Audio #2
ID : 3
Format : AC-3
Format/Info : Audio Coding 3
Commercial name : Dolby Digital
Codec ID : A_AC3
Duration : 1 h 57 min
Bit rate mode : Constant
Bit rate : 192 kb/s
Channel(s) : 2 channels
Channel layout : L R
Sampling rate : 48.0 kHz
Frame rate : 31.250 FPS (1536 SPF)
Compression mode : Lossy
Stream size : 162 MiB (2%)
Title : AVO - Ю. Сербин | 18 +
Language : Russian
Service kind : Complete Main
Default : No
Forced : No
Audio #3
ID : 4
Format : AAC LC
Format/Info : Advanced Audio Codec Low Complexity
Codec ID : A_AAC-2
Duration : 1 h 57 min
Bit rate : 128 kb/s
Channel(s) : 2 channels
Channel layout : L R
Sampling rate : 48.0 kHz
Frame rate : 46.875 FPS (1024 SPF)
Compression mode : Lossy
Stream size : 108 MiB (2%)
Title : Original
Language : Korean
Default : No
Forced : No
Text
ID : 5
Format : UTF-8
Codec ID : S_TEXT/UTF8
Codec ID/Info : UTF-8 Plain Text
Duration : 1 h 54 min
Bit rate : 34 b/s
Count of elements : 1044
Stream size : 28.9 KiB (0%)
Title : [full]
Language : English
Default : No
Forced : No
Скриншоты: Все одноименные релизы в КлубеВремя раздачи: (мультитрекер)
[Профиль] [ЛС]
Показать сообщения:    
Ответить на тему

Текущее время: 25-Фев 19:22

Часовой пояс: UTC ± 0



Вы не можете начинать темы
Вы не можете отвечать на сообщения
Вы не можете редактировать свои сообщения
Вы не можете удалять свои сообщения
Вы не можете голосовать в опросах
Вы не можете прикреплять файлы к сообщениям
Вы не можете скачивать файлы

[  Время выполнения: 0,044 сек  |  MySQL: 0,002 сек (5%) · 3 запр.  |  GZIP выкл  |  Память: 422,29 KB / 1,73 MB / 1,33 MB  |  Лимит: 9 12 15  ]