Отель «Жасмин» / Losmen Melati (2023) WEBRip [H.264/1080p] [DVO]

Ответить на тему
 
Автор Сообщение

admin ®

Пол: Не указан

Стаж: 4 месяца 23 дня

Сообщений: 10110

Создавать темы 30-Янв-2024 17:17

[Цитировать]

Отель «Жасмин» / Losmen Melati (2023) WEBRip [H.264/1080p] - Производство: Индонезия / Infinite Studios
Жанр: ужасы, триллер, детектив
Режиссер: Майк Уилуэн, Билли Кристиан
Актеры: Александра Готтардо, Кики Нарендра, Сэмюэл Панджайтан, Фэнди Кристиан, Эна Пасарибу, Дви Сасоно, Бимасена Присай Сусило, Адинда Бретон, Джордан Омар, Абирама Путра А.
Описание:
Ища ночлега в забытой части города, путешественники оказываются запертыми в проклятом отеле, в то время как его хозяйка заставляет их встретиться лицом к лицу с самыми темными ужасами.
Релиз от: Alexandr
Продолжительность: 01:33:41
Качество видео: WEBRip
Перевод: Двуголосый любительский (Yuka_chan & datynet)
Язык озвучки: русский
Субтитры: отсутствуют
Видео: AVC/H.264, 1920x1080 (16:9), ~4175 Kbps
Аудио: AAC, 2 ch, 265 Kbps - русский

MediaInfo:

Общее
Уникальный идентификатор : 138866260758263355030812023255459868557 (0x6878AB42A9A8C05A3AB1DA1EE7A2AF8D)
Полное имя : G:\Losmen Melati (2023).by.Alexandr.mkv
Формат : Matroska
Версия формата : Version 4
Размер файла : 2,90 Гбайт
Продолжительность : 1 ч. 33 м.
Режим общего битрейта : Переменный
Общий поток : 4 427 Кбит/сек
Частота кадров : 25,000 кадров/сек
Название фильма : Losmen Melati (2023).by.Alexandr
Дата кодирования : 2023-08-13 10:35:07 UTC
Программа кодирования : mkvmerge v26.0.0 ('In The Game') 32-bit
Библиотека кодирования : libebml v1.3.6 + libmatroska v1.4.9
Видео
Идентификатор : 1
Формат : AVC
Формат/Информация : Advanced Video Codec
Профиль формата : Main@L4
Настройки формата : CABAC / 3 Ref Frames
Параметр CABAC формата : Да
Параметр RefFrames формата : 3 кадра
Идентификатор кодека : V_MPEG4/ISO/AVC
Продолжительность : 1 ч. 33 м.
Вид битрейта : Переменный
Битрейт : 4 173 Кбит/сек
Максимальный битрейт : 12,5 Мбит/сек
Ширина : 1 920 пикселей
Высота : 1 080 пикселей
Соотношение сторон : 16:9
Режим частоты кадров : Постоянный
Частота кадров : 25,000 кадров/сек
Цветовое пространство : YUV
Субдискретизация насыщенности : 4:2:0
Битовая глубина : 8 бит
Тип развёртки : Прогрессивная
Бит/(Пиксели*Кадры) : 0.080
Размер потока : 2,72 Гбайт (94%)
Default : Да
Forced : Нет
Аудио
Идентификатор : 2
Формат : AAC LC
Формат/Информация : Advanced Audio Codec Low Complexity
Идентификатор кодека : A_AAC-2
Продолжительность : 1 ч. 33 м.
Битрейт : 265 Кбит/сек
Каналы : 2 канала
Channel layout : L R
Частота : 48,0 КГц
Частота кадров : 46,875 кадров/сек (1024 SPF)
Метод сжатия : С потерями
Размер потока : 176 Мбайт (6%)
Default : Да
Forced : Нет
Скриншоты:
Все одноименные релизы в КлубеВремя раздачи: 24/7 (круглосуточно) (минимум до появления первых 3-5 скачавших)
[Профиль] [ЛС]
Показать сообщения:    
Ответить на тему

Текущее время: 22-Фев 00:06

Часовой пояс: UTC ± 0



Вы не можете начинать темы
Вы не можете отвечать на сообщения
Вы не можете редактировать свои сообщения
Вы не можете удалять свои сообщения
Вы не можете голосовать в опросах
Вы не можете прикреплять файлы к сообщениям
Вы не можете скачивать файлы

[  Время выполнения: 0,035 сек  |  MySQL: 0,004 сек (11%) · 3 запр.  |  GZIP выкл  |  Память: 421,85 KB / 1,73 MB / 1,34 MB  |  Лимит: 9 9 9  ]